Библиотекари (The Librarians) / (Сезон 1, серии 1-7 из 10) LostFilm (2014) [MP4|1280x716] <WEB-DLRip [H.264]>

 
 Статистика раздачи 
Размер: 9.98 ГБ   |  Зарегистрирован: 21 янв 2015, 08:27   |   .torrent скачан: 0 раз
Сидеров: 1  [ 0 байт/сек ]     Личеров: 1  [ 0 байт/сек ]  
  

Библиотекари (The Librarians) / (Сезон 1, серии 1-7 из 10) LostFilm (2014) [MP4|1280x716] <WEB-DLRip [H.264]>

Сообщение Thistoll » 21 янв 2015, 08:27

Библиотекари (The Librarians) / (Сезон 1, серии 1-7 из 10) LostFilm (2014) WEB-DLRip
«Filing evil under history»

Год выпуска: 2014
Жанр: Приключения
Страна: США

Описание фильма:
«Библиотекари» — это приключенческий фэнтезийный сериал, спин-офф полнометражной трилогии «Библиотекарь». Создатели проекта вдохновлялись классическими авантюрными сюжетами, которые часто становятся основой зрелищных голливудских блокбастеров, таких как «Индиана Джонс» и «Сокровище нации». В сериале органично существуют мифы и легенды различных народов, а его непринужденная атмосфера, динамичный сюжет, самоирония и жанровое разнообразие могут привлечь зрителей любых вкусов и возрастов.

Действие разворачивается в Нью-Йорке, где под зданием обычной публичной библиотеки располагается штаб-квартира таинственного ордена. Главный хранитель Флинн Карсен (Ноа Уайл) возглавляет эту организацию уже десять лет. Его задача — защищать сверхъестественные артефакты (Копье судьбы, Ковчег завета, Эскалибур и другие) от врагов, в том числе от невероятно опасного Змеиного Братства. Оно давно мечтает заполучить ценные реликвии, чтобы использовать их магию в своих целях, а Флинн не справляется в одиночку. Тогда к нему на помощь приходит агент по борьбе с терроризмом Ив Бэрд (Ребекка Ромейн). Вместе они подбирают трех других кандидатов на пост верховного библиотекаря. Так, к команде присоединяется Джейк Стоун (Кристиан Кэйн) — работник нефтяной вышки с IQ 190 и энциклопедическими знаниями в области истории искусств. Вместе с ним на защиту артефактов встает Кассандра Киллиан (Линди Бут) — гений математики с фотографической памятью и способностью создавать визуальные и сенсорные галлюцинации. И, наконец, третьим кандидатом становится Эзекиль Джонс (Джон Ким) — специалист по современным технологиям и вор высшего класса. Вместе они должны найти украденные артефакты и нарушить коварные планы Змеиного Братства.

Режиссер: Дин Девлин, Джонатан Фрейкс
Актеры: Ноа Уайли, Джон Ларрокетт, Ребекка Ромейн, Кристиан Кейн, Джон Ким, Линди Бут, Лесли-Энн Брандт, Джейн Куртин, Боб Ньюхарт, Бен Эндрюс и др.

Продолжительность: ~ 00:58:00 серия
Качество видео: WEB-DLRip 720p

Перевод: Многоголосый закадровый, профессиональный - LostFilm
Озвучка / Автор перевода: Студия «LostFilm»

Сэмпл
Дата мировой премьеры: 7 декабря 2014

Формат: MP4
Видеокодек: MPEG-4 AVC/H.264
Битрейт видео: ~4000 Кбит/сек
Размер кадра: 1280x716 (16:9)
Аудиокодек: AAC, 2 канала
Битрейт аудио: 274 Кбит/сек
Полное имя : M:\The_Librarians_s1_WEB-DL720p_x264_LostFilm_[NNM-CLUB]\The.Librarians.S01E01.720p.WEB.rus.LostFilm.TV.mp4
Формат : MPEG-4
Профиль формата : Base Media
Идентификатор кодека : isom
Размер файла : 1,72 Гбайт
Продолжительность : 57 м.
Режим общего битрейта : Переменный
Общий поток : 4245 Кбит/сек
Коллекция : Библиотекари
Сезон : 1
Альбом : Библиотекари, Сезон 1
Альбом/Исполнитель : Библиотекари
Часть : 1
Часть/Положение : 1
Трек : И корона короля Артура
Трек/Положение : 1
Исполнитель : Библиотекари
Жанр : Drama
Тип содержимого : TV Show
Дата записи : 2014
Дата кодирования : UTC 2014-12-22 10:54:02
Дата пометки : UTC 2014-12-22 10:54:02
Программа кодирования : Yamb 2.1.0.0 [http://yamb.unite-video.com] / LostCoder
Правообладатель : LostFilm.TV (c)
Обложка : Yes
Примечание : Действие разворачивается в Нью-Йорке, где под зданием обычной публичной библиотеки располагается штаб-квартира таинственного ордена. Главный хранитель Флинн Карсен возглавляет эту организацию уже десять лет.
Part_ID : 101

Видео
Идентификатор : 1
Формат : AVC
Формат/Информация : Advanced Video Codec
Профиль формата :
Параметр CABAC формата : Нет
Параметр ReFrames формата : 2 кадра
Идентификатор кодека : avc1
Идентификатор кодека/Информация : Advanced Video Coding
Продолжительность : 57 м.
Битрейт : 4000 Кбит/сек
Максимальный битрейт : 12,5 Мбит/сек
Ширина : 1280 пикселей
Высота : 716 пикселей
Соотношение сторон : 16:9
Режим частоты кадров : Переменный
Частота кадров : 23,976 кадра/сек
Минимальная частота кадров : 23,974 кадра/сек
Максимальная частота кадров : 23,981 кадра/сек
Цветовое пространство : YUV
Субдискретизация насыщенности : 4:2:0
Битовая глубина : 8 бит
Тип развёртки : Прогрессивная
Бит/(Пиксели*Кадры) : 0.182
Размер потока : 1,60 Гбайт (93%)
Библиотека кодирования : x264 core 112 r1834 a51816a
Настройки программы : cabac=0 / ref=3 / deblock=1:0:0 / analyse=0x1:0x111 / me=hex / subme=7 / psy=1 / psy_rd=1.00:0.00 / mixed_ref=1 / me_range=16 / chroma_me=1 / trellis=1 / 8x8dct=0 / cqm=0 / deadzone=21,11 / fast_pskip=1 / chroma_qp_offset=-2 / threads=6 / sliced_threads=0 / nr=0 / decimate=1 / interlaced=0 / constrained_intra=0 / bframes=3 / b_pyramid=2 / b_adapt=1 / b_bias=0 / direct=1 / weightb=1 / open_gop=0 / weightp=2 / keyint=250 / keyint_min=25 / scenecut=40 / intra_refresh=0 / rc_lookahead=40 / rc=abr / mbtree=1 / bitrate=4000 / ratetol=1.0 / qcomp=0.60 / qpmin=0 / qpmax=51 / qpstep=4 / vbv_maxrate=5000 / vbv_bufsize=2000 / ip_ratio=1.40 / aq=1:1.00 / nal_hrd=none
Язык : English
Дата пометки : UTC 2014-12-22 10:58:39
Основные цвета : BT.709
Характеристики трансфера : BT.709
Коэффициенты матрицы : BT.709

Аудио
Идентификатор : 2
Формат : AAC
Формат/Информация : Advanced Audio Codec
Профиль формата : LC
Идентификатор кодека : 40
Продолжительность : 57 м.
Вид битрейта : Переменный
Битрейт : 274 Кбит/сек
Максимальный битрейт : 363 Кбит/сек
Каналы : 2 канала
Расположение каналов : Front: L R
Частота : 48,0 КГц
Метод сжатия : С потерями
Размер потока : 114 Мбайт (6%)
Дата кодирования : UTC 2014-12-22 10:58:25
Дата пометки : UTC 2014-12-22 10:58:39
01 - И корона короля Артура / And the Crown of King Arthur
02 - И меч в камне / And the Sword in the Stone
03 - И рога дилеммы / And the Horns of a Dilemma
04 - И полуночное дело Санты / And Santa's Midnight Run
05 - И яблоко раздора / And the Apple of Discord
06 - И сказки судьбы / And the Fables of Doom
07 - И Правило Трёх / And the Rule of Three
Внимание! Раздача ведётся путём добавления новых серий; при каждом добавлении создаётся новый торрент.
Чтобы начать докачку новой серии, пользователям необходимо сделать следующее:
1. Остановить скачивание;
2. Удалить старый торрент у себя из клиента (старые серии удалять не надо);
3. Скачать новый торрент и запустить его у себя в клиенте вместо старого, при этом указать клиенту путь в старую папку куда и должно происходить скачивание новых серий. Ваш клиент при этом должен произвести хеширование (проверку) старой папки и будет докачивать только те серии, которых у вас ещё нет. Старые серии при этом не удаляются, а продолжают раздаваться! Eсли вы уже удалили старые серии, то предотвратить повторную закачку старых серий можно, отжав галочку в соответствующих местах при запуске нового торрента.
Скриншоты:



Время раздачи:
24/7 - круглосуточно
(до первых 5-ти сидов - потом по возможности)
 
Не забывайте говорить Спасибо. Не уходите с раздачи!   
Торрент: Зарегистрирован [21 янв 2015, 08:27] Для скачивания .torrent
необходима регистрация
Или скачать с помощью
MediaGet
Статус:
Проверен
 
.torrent скачан: 0 раз
Хэш: b97094a7dc49ecc0d7756e421270a2843acb7139
Размер: 9.98 ГБ (10 713 021 222 байт)
Стать Автором раздачи
 
 
Раздал: 6.67 ГБ
Скачал: 302.5 МБ
Ратио: 22.576
Сообщения: 374198
Зарегистрирован: 17 апр 2014, 11:05


  • Похожие торренты
    Ответы
    Просмотры
    Последнее сообщение

Вернуться в Видео для мобильных устройств

Ресурс не предоставляет электронные версии произведений, а занимается лишь коллекционированием и каталогизацией ссылок, присылаемых и публикуемых на форуме нашими читателями. Если вы являетесь правообладателем какого-либо представленного материала и не желаете чтобы ссылка на него находилась в нашем каталоге, свяжитесь с нами и мы незамедлительно удалим её. Файлы для обмена на трекере предоставлены пользователями сайта, и администрация не несёт ответственности за их содержание. Просьба не заливать файлы, защищенные авторскими правами, а также файлы нелегального содержания!
cron