CSI: Место Преступления (CSI: Crime Scene Investigation) / (Сезон 15, серии 1-13 из 22) (2014-2015) [MP4|720x404] <HDTVRip H.264> [EN / RU Sub] (обновляемая)

 
 Статистика раздачи 
Размер: 3.83 ГБ   |  Зарегистрирован: 21 янв 2015, 08:27   |   .torrent скачан: 0 раз
Сидеров: 1  [ 0 байт/сек ]     Личеров: 0  [ 0 байт/сек ]  
  

CSI: Место Преступления (CSI: Crime Scene Investigation) / (Сезон 15, серии 1-13 из 22) (2014-2015) [MP4|720x404] <HDTVRip H.264> [EN / RU Sub] (обновляемая)

Сообщение Thistoll » 21 янв 2015, 08:27

CSI: Место Преступления (CSI: Crime Scene Investigation) / (Сезон 15, серии 1-13 из 22) (2014-2015) HDTVRip

Год выпуска: 2014-2015
Жанр: Криминал, Детектив

Перевод: Отсутствует
Язык: Английский
Озвучка / Автор перевода: ресурс Notabenoid, с 6й серии - cotranslate
Вид субтитров: Отдельным файлом
Язык субтитров: Русские, Английские


Дата мировой премьеры: 28.09.2014

Актеры: Тед Дэнсон (Ted Danson),Элизабет Шу ( ELISABETH SHUE ), Джордж Идс ( GEORGE EADS ), Эрик Жманда ( Eric Szmanda ), Роберт Дэвид Холл ( ROBERT DAVID HALL ), Джорджа Фокс ( JORJA FOX ), Дэвид Берман ( DAVID BERMAN ), Уоллес Лэнгэм ( WALLACE LANGHAM ), Элизабет Харнуа ( Elisabeth Harnois )

Описание фильма:
Лас-Вегас… Своими яркими неоновыми огнями, сотнями игровых клубов и казино он манит всё новых и новых людей. Но далеко не все из них оказываются добропорядочными гражданами. В огромном людском потоке частенько прячутся преступники всех мастей. Они убеждены, что их злодеяния останутся незамеченными. Но они сильно ошибаются, ведь в городе работает неутомимая команда полиции C.S.I.
Героям сериала при помощи новейших научных и технических разработок предстоит расследовать череду загадочных убийств, похищений и даже ритуальных жертвоприношений. Для них нет ничего невозможного. В городе разбитых надежд и несбывшихся мечтаний они найдут ключи к тайнам самых загадочных преступлений. И тогда всё тайное станет явным….
Количество серий:
13 по состоянию на 20.01.2015
Продолжительность: ~ 00:43:00 серия
Качество видео: HDTVRip

Формат: MP4
Видеокодек: MPEG-4 AVC/H.264
Битрейт видео: ~766 Kbps
Размер кадра: 720x404 (16:9)
Аудио кодек: AAC, 2 ch
Битрейт аудио: ~121 Kbps, VBR
General
Complete name : M:\!!!.SERIALS\CSI Las Vegas Season 15\CSI.S15E01.HDTV.x264-LOL.mp4
Format : MPEG-4
Format profile : Base Media
Codec ID : isom
File size : 289 MiB
Duration : 43mn 18s
Overall bit rate mode : Variable
Overall bit rate : 933 Kbps
Encoded date : UTC 2014-09-28 13:11:17
Tagged date : UTC 2014-09-28 13:11:17

Video
ID : 1
Format : AVC
Format/Info : Advanced Video Codec
Format profile :
Format settings, CABAC : Yes
Format settings, ReFrames : 5 frames
Codec ID : avc1
Codec ID/Info : Advanced Video Coding
Duration : 43mn 17s
Source duration : 43mn 17s
Bit rate : 766 Kbps
Maximum bit rate : 4 517 Kbps
Width : 720 pixels
Height : 404 pixels
Display aspect ratio : 16:9
Frame rate mode : Constant
Frame rate : 23.976 fps
Color space : YUV
Chroma subsampling : 4:2:0
Bit depth : 8 bits
Scan type : Progressive
Bits/(Pixel*Frame) : 0.110
Stream size : 237 MiB (82%)
Source stream size : 250 MiB (87%)
Writing library : x264 core 142 r2479 dd79a61
Encoding settings : cabac=1 / ref=5 / deblock=1:1:1 / analyse=0x3:0x133 / me=umh / subme=9 / psy=1 / psy_rd=1.00:0.00 / mixed_ref=1 / me_range=16 / chroma_me=1 / trellis=2 / 8x8dct=1 / cqm=0 / deadzone=21,11 / fast_pskip=0 / chroma_qp_offset=-2 / threads=16 / lookahead_threads=1 / sliced_threads=0 / nr=0 / decimate=1 / interlaced=0 / bluray_compat=0 / constrained_intra=0 / bframes=3 / b_pyramid=2 / b_adapt=2 / b_bias=0 / direct=3 / weightb=1 / open_gop=0 / weightp=2 / keyint=250 / keyint_min=23 / scenecut=40 / intra_refresh=0 / rc_lookahead=60 / rc=crf / mbtree=1 / crf=19.0 / qcomp=0.60 / qpmin=0 / qpmax=69 / qpstep=4 / ip_ratio=1.40 / aq=1:1.00
Encoded date : UTC 2014-09-28 12:11:53
Tagged date : UTC 2014-09-28 13:11:19
Matrix coefficients : BT.709

Audio
ID : 2
Format : AAC
Format/Info : Advanced Audio Codec
Format profile : LC
Codec ID : 40
Duration : 43mn 18s
Bit rate mode : Variable
Bit rate : 121 Kbps
Maximum bit rate : 154 Kbps
Channel(s) : 2 channels
Channel positions : Front: L R
Sampling rate : 48.0 KHz
Compression mode : Lossy
Stream size : 37.6 MiB (13%)
Encoded date : UTC 2014-09-28 13:11:18
Tagged date : UTC 2014-09-28 13:11:19


Скриншоты:


Раздача ведётся путём добавления новых серий;
при каждом добавлении создаётся новый торрент.
Чтобы начать докачку новой серии, пользователям необходимо сделать следующее:
(1) остановить скачивание,
(2) удалить старый торрент у себя из клиента (старые серии удалять не надо),
(3) скачать новый торрент и запустить его у себя в клиенте вместо старого, при этом указать клиенту путь в старую папку куда и должно происходить скачивание новых серий.

Ваш клиент при этом должен произвести хеширование (проверку) старой папки (если не производит сам - помогите ему сделать это), и будет докачивать только те серии которых у вас ещё нет. Старые серии при этом не удаляются, а продолжают раздаваться!

Eсли вы уже удалили старые серии, то предотвратить повторную закачку старых серий можно, отжав галочку в соответствующих местах при запуске нового торрента. По возможности, желательно не удалять старые серии как можно дольше чтобы релизёр не столько продолжал раздавать старые серии, а смог сконцентрироваться на новых.
Время раздачи: по возможности 24/7
PS: Раздача будет обновляться по мере готовности Русских субтитров
 
Не забывайте говорить Спасибо. Не уходите с раздачи!   
Торрент: Зарегистрирован [21 янв 2015, 08:27] Для скачивания .torrent
необходима регистрация
Или скачать с помощью
MediaGet
Статус:
Проверен
 
.torrent скачан: 0 раз
Хэш: 6d7e74c3923de9ed3adfc6947d270a53ec0782cf
Размер: 3.83 ГБ (4 116 791 663 байт)
Стать Автором раздачи
 
 
Раздал: 6.67 ГБ
Скачал: 302.5 МБ
Ратио: 22.576
Сообщения: 374198
Зарегистрирован: 17 апр 2014, 11:05


  • Похожие торренты
    Ответы
    Просмотры
    Последнее сообщение

Вернуться в Видео для мобильных устройств

Ресурс не предоставляет электронные версии произведений, а занимается лишь коллекционированием и каталогизацией ссылок, присылаемых и публикуемых на форуме нашими читателями. Если вы являетесь правообладателем какого-либо представленного материала и не желаете чтобы ссылка на него находилась в нашем каталоге, свяжитесь с нами и мы незамедлительно удалим её. Файлы для обмена на трекере предоставлены пользователями сайта, и администрация не несёт ответственности за их содержание. Просьба не заливать файлы, защищенные авторскими правами, а также файлы нелегального содержания!
cron