Наедине со всеми (выпуски 86-98) (2014) [MP4|640x360] <TVRip H.264>

 
 Статистика раздачи 
Размер: 3.15 ГБ   |  Зарегистрирован: 20 янв 2015, 21:01   |   .torrent скачан: 0 раз
Сидеров: 1  [ 0 байт/сек ]     Личеров: 1  [ 0 байт/сек ]  
  

Наедине со всеми (выпуски 86-98) (2014) [MP4|640x360] <TVRip H.264>

Сообщение Thistoll » 20 янв 2015, 21:01

Наедине со всеми (2 сезон, выпуски 86-98) (2014) [MP4|640x360] <TVRip H.264>

Год выпуска: 2014
Жанр: Документальный

Описание фильма:
Юлия Меньшова: «"Наедине со всеми" — это программа-портрет: люди через призму наиболее известных, серьезных и важных событий их жизни. Нас интересует не столько информация, сколько чувства. Конечно, степень открытости будет зависеть от собеседника. Но многие гости программы знают меня лично, и это помогает сделать разговор комфортным для собеседника и говорить на темы, о которых они обычно предпочитают молчать. Очень часто журналисты задают стандартные вопросы, и суть человека ускользает. Моя задача поймать эту суть, и мне кажется, она заключена именно в чувствах, а не в словах. При подготовке к каждой программе я читаю громадное количество информации о герое, поднимаю весь бэкграунд и попытаюсь уловить, что интересует людей в отношении моего героя

Телекомпания: 1 канал
Ведущая: Юлия Меньшова
Гости: Максим Леонидов, Елена Драпеко, Александр Чепурнов, Алена Свиридова, Валерий Сюткин, Тутта Ларсен, Александр Ревва, Владимир Жириновский, Елена Яковлева, Александр БУйнов, Наталья Бочкарева, Денис Мацуев, проект "Взгляд в будущее"

Продолжительность: ~ 00:45:00 серия
Качество видео: TVRip

Видеокодек: MPEG-4 AVC/H.264
Битрейт видео: ~~650 kb/s
Размер кадра: 640х360
Аудиокодек: AAC
Битрейт аудио: 120 kb/s
Код:
Код: Выделить всё
Общее
Полное имя                               : E:\Torrent\Наедине со всеми 2 сезон\Наедине со всеми 2 сезон 86-100 выпуски\Владимир Жириновский.mp4
Формат                                   : MPEG-4
Профиль формата                          : Base Media
Идентификатор кодека                     : isom
Размер файла                             : 250 Мбайт
Продолжительность                        : 45 м.
Общий поток                              : 776 Кбит/сек
Программа кодирования                    : Lavf53.4.0

Видео
Идентификатор                            : 1
Формат                                   : AVC
Формат/Информация                        : Advanced Video Codec
Профиль формата                          :
Параметр CABAC формата                   : Да
Параметр ReFrames формата                : 5 кадров
Идентификатор кодека                     : avc1
Идентификатор кодека/Информация          : Advanced Video Coding
Продолжительность                        : 45 м.
Битрейт                                  : 650 Кбит/сек
Ширина                                   : 640 пикселей
Высота                                   : 360 пикселей
Соотношение сторон                       : 16:9
Режим частоты кадров                     : Постоянный
Частота кадров                           : 25,000 кадров/сек
Цветовое пространство                    : YUV
Субдискретизация насыщенности            : 4:2:0
Битовая глубина                          : 8 бит
Тип развёртки                            : Прогрессивная
Бит/(Пиксели*Кадры)                      : 0.113
Размер потока                            : 209 Мбайт (84%)
Библиотека кодирования                   : x264 core 115

Аудио
Идентификатор                            : 2
Формат                                   : AAC
Формат/Информация                        : Advanced Audio Codec
Профиль формата                          : LC
Идентификатор кодека                     : 40
Продолжительность                        : 45 м.
Вид битрейта                             : Постоянный
Битрейт                                  : 120 Кбит/сек
Каналы                                   : 2 канала
Расположение каналов                     : Front: L R
Частота                                  : 48,0 КГц
Метод сжатия                             : С потерями
Размер потока                            : 38,6 Мбайт (15%)
Скриншоты:
Возможно обновление торрента, если выйдут 99 и 100 выпуски


Время раздачи: По возможности 12/7
 
Не забывайте говорить Спасибо. Не уходите с раздачи!   
Торрент: Зарегистрирован [20 янв 2015, 21:01] Для скачивания .torrent
необходима регистрация
Или скачать с помощью
MediaGet
Статус:
Проверен
 
.torrent скачан: 0 раз
Хэш: cf5fe7d7164fe28e9d9254420d08d50d08a3ac4d
Размер: 3.15 ГБ (3 381 071 121 байт)
Стать Автором раздачи
 
 
Раздал: 6.67 ГБ
Скачал: 302.5 МБ
Ратио: 22.576
Сообщения: 374198
Зарегистрирован: 17 апр 2014, 11:05


  • Похожие торренты
    Ответы
    Просмотры
    Последнее сообщение

Вернуться в Видео для мобильных устройств

Ресурс не предоставляет электронные версии произведений, а занимается лишь коллекционированием и каталогизацией ссылок, присылаемых и публикуемых на форуме нашими читателями. Если вы являетесь правообладателем какого-либо представленного материала и не желаете чтобы ссылка на него находилась в нашем каталоге, свяжитесь с нами и мы незамедлительно удалим её. Файлы для обмена на трекере предоставлены пользователями сайта, и администрация не несёт ответственности за их содержание. Просьба не заливать файлы, защищенные авторскими правами, а также файлы нелегального содержания!
cron