(Hard Rock) [LP] [24/96] Charizma - Rockin' The World Together - 1991, FLAC (image+.cue)

 
 Статистика раздачи 
Размер: 854.37 МБ   |  Зарегистрирован: 20 янв 2015, 12:25   |   .torrent скачан: 0 раз
Сидеров: 1  [ 0 байт/сек ]     Личеров: 0  [ 0 байт/сек ]  
  

(Hard Rock) [LP] [24/96] Charizma - Rockin' The World Together - 1991, FLAC (image+.cue)

Сообщение Thelver1947 » 20 янв 2015, 12:25

Charizma - Rockin' The World Together


Жанр: Hard Rock
Носитель: LP
Год выпуска: 1991
Лейбл: Мелодия ‎– C60 31041 007
Страна-производитель: Russia
Аудио кодек: FLAC
Тип рипа: image+.cue
Формат записи: 32/96
Формат раздачи: 24/96
Продолжительность: 00:36:45
Тэги в .cue: прописаны
Источник оцифровки: msvkp
Код класса состояния винила: VG
Устройство воспроизведения: Электроника Д1-012
Головка звукоснимателя: ЭДА 001
Предварительный усилитель: встроенный
АЦП: Realtek ALC887
Программа-оцифровщик: Cool Edit Pro 2.1
Обработка: удаление артефактов, реставрация (samopal records)

Artwork By – Mikael Arwidson
Backing Vocals – Johan Mauritzson
Bass – Bosse Nikolausson
Drums – Janne Nikolausson
Edited By – Mart Maripuu
Engineer – Gunnar Silins, Janne Apelholm*, Peter Jingsäter, Priit Kuulberg
Guitar – Göran Nikolausson
Keyboards – Hasse Engström, Mats Tärnfors (tracks: A2, A3)
Photography – Gunnar Swärd, Håkan Isefjord
Producer – Charizma (2), Hasse Engström
Vocals – Bosse Nikolausson, Göran Nikolausson, Janne Nikolausson-
Recorded at PLC-Recording Studio, Hultsfred, Sweden and OAL-Studio, Solentuna, Sweden
All rights reserved. Copyright Charizma, URR
© 1985, 1986, 1989, 1990
Апрелевский ордена Ленина завод грампластинок
1991 Variant 1: Зак. 719. Тираж 46450 White labels
1991 Variant 2: Зак. 810. Тираж 6500 White labels
Арт. 11-1. Цена 2 руб. 50 коп.

A1 Turn Me On
A2 Take You High
A3 Join Hand
A4 Try It
B1 God Bless Rock'n'Rol
B2 Won't Let Me Down
B3 On Your Own
B4 Where Do You Stand

Код: Выделить всё
REM GENRE Hard Rock
REM DATE 1991
REM COMENT Vinyl, LP, Album, Мелодия – C60 31041 007, Russia
TITLE Rockin' The World Together
PERFORMER Charizma
FILE "01. Charizma - Side 1.flac" WAVE
  TRACK 01 AUDIO
    TITLE "A1 Turn Me On"
    INDEX 01 00:00:00
  TRACK 02 AUDIO
    TITLE "A2 Take You High"
    INDEX 01 04:20:49
  TRACK 03 AUDIO
    TITLE "A3 Join Hands"
    INDEX 01 09:16:14
  TRACK 04 AUDIO
    TITLE "A4 Try It"
    INDEX 01 14:22:17
FILE "02. Charizma - Side 2.flac" WAVE
  TRACK 05 AUDIO
    TITLE "B1 God Bless Rock'n'Roll"
    INDEX 01 00:00:00
  TRACK 06 AUDIO
    TITLE "B2 Won't Let Me Down"
    INDEX 01 03:32:64
  TRACK 07 AUDIO
    TITLE "B3 On Your Own"
    INDEX 01 07:54:62
  TRACK 08 AUDIO
    TITLE "B4 Where Do You Stand"
    INDEX 01 12:20:47
 
Не забывайте говорить Спасибо. Не уходите с раздачи!   
Торрент: Зарегистрирован [20 янв 2015, 12:25] Скачать торрент
Скачать торрент
[ Размер 17.63 КБ / Просмотров 9 ]
Статус:
Проверен
 
.torrent скачан: 0 раз
Хэш: fe29aff5b6d1e183c7ba92debe719c7a59846a22
Размер: 854.37 МБ (895 872 457 байт)
Стать Автором раздачи
 
 
Раздал: 690.52 МБ
Скачал: 0 байт
Ратио: Seed.
Сообщения: 218210
Зарегистрирован: 14 июн 2014, 21:11


  • Похожие торренты
    Ответы
    Просмотры
    Последнее сообщение

Вернуться в Отечественный рок (собственные оцифровки)

Ресурс не предоставляет электронные версии произведений, а занимается лишь коллекционированием и каталогизацией ссылок, присылаемых и публикуемых на форуме нашими читателями. Если вы являетесь правообладателем какого-либо представленного материала и не желаете чтобы ссылка на него находилась в нашем каталоге, свяжитесь с нами и мы незамедлительно удалим её. Файлы для обмена на трекере предоставлены пользователями сайта, и администрация не несёт ответственности за их содержание. Просьба не заливать файлы, защищенные авторскими правами, а также файлы нелегального содержания!
cron