RTД Репортаж. Мир в фокусе. Революция по сценарию (Revolucion por guion) (2013) [MP4|852х480] <WEB-DLRip [H.264]>

 
 Статистика раздачи 
Размер: 229.96 МБ   |  Зарегистрирован: 18 янв 2015, 18:48   |   .torrent скачан: 1 раз
Сидеров: 1  [ 0 байт/сек ]     Личеров: 0  [ 0 байт/сек ]  
  

RTД Репортаж. Мир в фокусе. Революция по сценарию (Revolucion por guion) (2013) [MP4|852х480] <WEB-DLRip [H.264]>

Сообщение Thistoll » 18 янв 2015, 18:48

RTД Репортаж. Мир в фокусе. Революция по сценарию / Revolucion por guion (2013) WEB-DLRip

Жанр: Документальный, общественно-политический, исследование
Производство: RT АНО ТВ-Новости

Описание фильма:
Акции протеста, переросшие в революции, уже привели к смене власти в Тунисе, Йемене, в Египте и Ливии. Революционный огонь еще горит в Сирии и Бахрейне. Но «арабскую весну», похоже, сменяет «весна европейская». События на Украине с пугающей точностью повторили «арабский сценарий». Корреспондент RT попытался понять, почему же так похожи все эти революции и кто создает шаблоны народного гнева.

Продолжительность: 00:28:50
Качество видео: WEB-DLRip
Перевод: Одноголосый закадровый

Видеокодек: MPEG-4 AVC/H.264
Битрейт видео: ~1010 Кбит/с,
Размер кадра: 852х480
Аудиокодек: AAC, 2 канала
Битрейт аудио: 100 Кбит/с
Общее
Полное имя : F:\видео\фильмы\RTД Репортаж. Мир в фокусе\RT Репортаж - Революция по сценарию.mp4
Полное имя : F:\видео\фильмы\RTД Репортаж. Мир в фокусе\RT Репортаж - Революция по сценарию.mp4 Формат : MPEG-4
Формат : MPEG-4 Профиль формата : Base Media
Профиль формата : Base Media Идентификатор кодека : isom
Идентификатор кодека : isom Размер файла : 230 Мбайт
Размер файла : 230 Мбайт Продолжительность : 28 м.
Продолжительность : 28 м. Режим общего битрейта : Переменный
Режим общего битрейта : Переменный Общий поток : 1115 Кбит/сек
Общий поток : 1115 Кбит/сек Дата кодирования : UTC 2014-03-05 15:05:02
Дата кодирования : UTC 2014-03-05 15:05:02 Дата пометки : UTC 2014-03-05 15:05:02
Дата пометки : UTC 2014-03-05 15:05:02 Программа кодирования : Lavf53.32.100
Программа кодирования : Lavf53.32.100
Видео
Идентификатор : 1
Идентификатор : 1 Формат : AVC
Формат : AVC Формат/Информация : Advanced Video Codec
Формат/Информация : Advanced Video Codec Профиль формата :
Профиль формата : Параметр CABAC формата : Нет
Параметр CABAC формата : Нет Параметр ReFrames формата : 3 кадра
Параметр ReFrames формата : 3 кадра Параметр GOP формата : M=1, N=15
Параметр GOP формата : M=1, N=15 Идентификатор кодека : avc1
Идентификатор кодека : avc1 Идентификатор кодека/Информация : Advanced Video Coding
Идентификатор кодека/Информация : Advanced Video Coding Продолжительность : 28 м.
Продолжительность : 28 м. Битрейт : 1000 Кбит/сек
Битрейт : 1000 Кбит/сек Ширина : 852 пикселя
Ширина : 852 пикселя Высота : 480 пикселей
Высота : 480 пикселей Соотношение сторон : 16:9
Соотношение сторон : 16:9 Режим частоты кадров : Постоянный
Режим частоты кадров : Постоянный Частота кадров : 25,000 кадров/сек
Частота кадров : 25,000 кадров/сек Цветовое пространство : YUV
Цветовое пространство : YUV Субдискретизация насыщенности : 4:2:0
Субдискретизация насыщенности : 4:2:0 Битовая глубина : 8 бит
Битовая глубина : 8 бит Тип развёртки : Прогрессивная
Тип развёртки : Прогрессивная Бит/(Пиксели*Кадры) : 0.098
Бит/(Пиксели*Кадры) : 0.098 Размер потока : 208 Мбайт (91%)
Размер потока : 208 Мбайт (91%) Библиотека кодирования : x264 core 120 r2151 a3f4407
Библиотека кодирования : x264 core 120 r2151 a3f4407 Настройки программы : cabac=0 / ref=3 / deblock=1:0:0 / analyse=0x1:0x111 / me=hex / subme=7 / psy=0 / mixed_ref=0 / me_range=16 / chroma_me=1 / trellis=1 / 8x8dct=0 / cqm=0 / deadzone=21,11 / fast_pskip=0 / chroma_qp_offset=0 / threads=8 / sliced_threads=0 / nr=0 / decimate=1 / interlaced=0 / bluray_compat=0 / constrained_intra=0 / bframes=0 / weightp=0 / keyint=15 / keyint_min=1 / scenecut=40 / intra_refresh=0 / rc_lookahead=15 / rc=abr / mbtree=1 / bitrate=1000 / ratetol=1.0 / qcomp=0.60 / qpmin=0 / qpmax=69 / qpstep=4 / ip_ratio=1.40 / aq=1:1.00
Настройки программы : cabac=0 / ref=3 / deblock=1:0:0 / analyse=0x1:0x111 / me=hex / subme=7 / psy=0 / mixed_ref=0 / me_range=16 / chroma_me=1 / trellis=1 / 8x8dct=0 / cqm=0 / deadzone=21,11 / fast_pskip=0 / chroma_qp_offset=0 / threads=8 / sliced_threads=0 / nr=0 / decimate=1 / interlaced=0 / bluray_compat=0 / constrained_intra=0 / bframes=0 / weightp=0 / keyint=15 / keyint_min=1 / scenecut=40 / intra_refresh=0 / rc_lookahead=15 / rc=abr / mbtree=1 / bitrate=1000 / ratetol=1.0 / qcomp=0.60 / qpmin=0 / qpmax=69 / qpstep=4 / ip_ratio=1.40 / aq=1:1.00 Язык : English
Язык : English Дата кодирования : UTC 2014-03-05 15:05:02
Дата кодирования : UTC 2014-03-05 15:05:02 Дата пометки : UTC 2014-03-05 15:05:02
Дата пометки : UTC 2014-03-05 15:05:02
Аудио
Идентификатор : 2
Идентификатор : 2 Формат : AAC
Формат : AAC Формат/Информация : Advanced Audio Codec
Формат/Информация : Advanced Audio Codec Профиль формата : LC
Профиль формата : LC Идентификатор кодека : 40
Идентификатор кодека : 40 Продолжительность : 28 м.
Продолжительность : 28 м. Вид битрейта : Переменный
Вид битрейта : Переменный Битрейт : 99,1 Кбит/сек
Битрейт : 99,1 Кбит/сек Максимальный битрейт : 160 Кбит/сек
Максимальный битрейт : 160 Кбит/сек Каналы : 2 канала
Каналы : 2 канала Расположение каналов : Front: L R
Расположение каналов : Front: L R Частота : 44,1 КГц
Частота : 44,1 КГц Метод сжатия : С потерями
Метод сжатия : С потерями Размер потока : 20,4 Мбайт (9%)
Размер потока : 20,4 Мбайт (9%) Язык : English
Язык : English Дата кодирования : UTC 2014-03-05 15:05:02
Дата кодирования : UTC 2014-03-05 15:05:02 Дата пометки : UTC 2014-03-05 15:05:02
Дата пометки : UTC 2014-03-05 15:05:02
Скриншоты:


Время раздачи: 24/7. До первых 5 скачавших

 
Не забывайте говорить Спасибо. Не уходите с раздачи!   
Торрент: Зарегистрирован [18 янв 2015, 18:48] Для скачивания .torrent
необходима регистрация
Или скачать с помощью
MediaGet
Статус:
Проверен
 
.torrent скачан: 1 раз
Хэш: caab2365a8067d909b5027f064da231ca7719ceb
Размер: 229.96 МБ (241 127 214 байт)
Стать Автором раздачи
 
 
Раздал: 6.67 ГБ
Скачал: 302.5 МБ
Ратио: 22.576
Сообщения: 374198
Зарегистрирован: 17 апр 2014, 11:05


  • Похожие торренты
    Ответы
    Просмотры
    Последнее сообщение

Вернуться в Видео для мобильных устройств

Ресурс не предоставляет электронные версии произведений, а занимается лишь коллекционированием и каталогизацией ссылок, присылаемых и публикуемых на форуме нашими читателями. Если вы являетесь правообладателем какого-либо представленного материала и не желаете чтобы ссылка на него находилась в нашем каталоге, свяжитесь с нами и мы незамедлительно удалим её. Файлы для обмена на трекере предоставлены пользователями сайта, и администрация не несёт ответственности за их содержание. Просьба не заливать файлы, защищенные авторскими правами, а также файлы нелегального содержания!
cron