Славянск. Крепость русского духа (2014) [MP4|1280x720] <WEB-DLRip [H.264]>

 
 Статистика раздачи 
Размер: 1.38 ГБ   |  Зарегистрирован: 18 янв 2015, 13:00   |   .torrent скачан: 0 раз
Сидеров: 1  [ 0 байт/сек ]     Личеров: 1  [ 0 байт/сек ]  
  

Славянск. Крепость русского духа (2014) [MP4|1280x720] <WEB-DLRip [H.264]>

Сообщение Thistoll » 18 янв 2015, 13:00

Славянск. Крепость русского духа (2014) [MP4|1280x720] <WEB-DLRip [H.264]>

Платформа или формат: [MP4|1280x720]
Жанр: Документальный, история

Описание фильма:
Документальный фильм Елены Семёновой о начале войны за независимость Новороссии — об обороне Славянска. В фильме рассказывается о героизме добровольцев ополчения, участники событий рассказывают о своем личном опыте жизни и войне в окруженном городе, который стал символом воинской доблести и бесстрашной борьбы за свободу. Игорь Стрелков, Маргарита Зайдлер, Игорь Друзь, Прапор, Кедр и многие другие рассказали автору фильма о тех героических временах.

Режиссер / Телекомпания: Елена Семёнова / Голос Эпохи
Участники: Игорь Стрелков, Маргарита Зайдлер, Игорь Друзь, Прапор, Кедр

Продолжительность: 2x~ 01:53:51
Качество видео: WEB-DLRip

Видеокодек: MPEG-4 AVC/H.264
Битрейт видео: ~1467 Кбит/сек
Размер кадра: 1280x720
Аудиокодек: AAC, 2ch
Битрейт аудио: 192 Кбит/сек
Общее
Полное имя : F:\видео\фильмы\Славянск. Крепость русского духа (2014) [WEBRip 720p]\Славянск. Крепость русского духа. Серия 1.mp4
Полное имя : F:\видео\фильмы\Славянск. Крепость русского духа (2014) [WEBRip 720p]\Славянск. Крепость русского духа. Серия 1.mp4 Формат : MPEG-4
Формат : MPEG-4 Профиль формата : Base Media / Version 2
Профиль формата : Base Media / Version 2 Идентификатор кодека : mp42
Идентификатор кодека : mp42 Размер файла : 684 Мбайт
Размер файла : 684 Мбайт Продолжительность : 57 м.
Продолжительность : 57 м. Режим общего битрейта : Переменный
Режим общего битрейта : Переменный Общий поток : 1662 Кбит/сек
Общий поток : 1662 Кбит/сек Дата кодирования : UTC 2014-12-12 21:02:24
Дата кодирования : UTC 2014-12-12 21:02:24 Дата пометки : UTC 2014-12-12 21:02:24
Дата пометки : UTC 2014-12-12 21:02:24 gsst : 0
gsst : 0 gstd : 3453270
gstd : 3453270 gssd : B4A7D6F2AHH1419744569135677
gssd : B4A7D6F2AHH1419744569135677 gshh : r10---sn-n8v7sn7r.googlevideo.com
gshh : r10---sn-n8v7sn7r.googlevideo.com
Видео
Идентификатор : 1
Идентификатор : 1 Формат : AVC
Формат : AVC Формат/Информация : Advanced Video Codec
Формат/Информация : Advanced Video Codec Профиль формата :
Профиль формата : Параметр CABAC формата : Да
Параметр CABAC формата : Да Параметр ReFrames формата : 1 кадр
Параметр ReFrames формата : 1 кадр Параметр GOP формата : M=1, N=60
Параметр GOP формата : M=1, N=60 Идентификатор кодека : avc1
Идентификатор кодека : avc1 Идентификатор кодека/Информация : Advanced Video Coding
Идентификатор кодека/Информация : Advanced Video Coding Продолжительность : 57 м.
Продолжительность : 57 м. Битрейт : 1467 Кбит/сек
Битрейт : 1467 Кбит/сек Максимальный битрейт : 5747 Кбит/сек
Максимальный битрейт : 5747 Кбит/сек Ширина : 1280 пикселей
Ширина : 1280 пикселей Высота : 720 пикселей
Высота : 720 пикселей Соотношение сторон : 16:9
Соотношение сторон : 16:9 Режим частоты кадров : Постоянный
Режим частоты кадров : Постоянный Частота кадров : 29,970 кадров/сек
Частота кадров : 29,970 кадров/сек Цветовое пространство : YUV
Цветовое пространство : YUV Субдискретизация насыщенности : 4:2:0
Субдискретизация насыщенности : 4:2:0 Битовая глубина : 8 бит
Битовая глубина : 8 бит Тип развёртки : Прогрессивная
Тип развёртки : Прогрессивная Бит/(Пиксели*Кадры) : 0.053
Бит/(Пиксели*Кадры) : 0.053 Размер потока : 604 Мбайт (88%)
Размер потока : 604 Мбайт (88%) Дата пометки : UTC 2014-12-12 21:03:44
Дата пометки : UTC 2014-12-12 21:03:44
Аудио
Идентификатор : 2
Идентификатор : 2 Формат : AAC
Формат : AAC Формат/Информация : Advanced Audio Codec
Формат/Информация : Advanced Audio Codec Профиль формата : LC
Профиль формата : LC Идентификатор кодека : 40
Идентификатор кодека : 40 Продолжительность : 57 м.
Продолжительность : 57 м. Вид битрейта : Переменный
Вид битрейта : Переменный Битрейт : 192 Кбит/сек
Битрейт : 192 Кбит/сек Максимальный битрейт : 202 Кбит/сек
Максимальный битрейт : 202 Кбит/сек Каналы : 2 канала
Каналы : 2 канала Расположение каналов : Front: L R
Расположение каналов : Front: L R Частота : 44,1 КГц
Частота : 44,1 КГц Метод сжатия : С потерями
Метод сжатия : С потерями Размер потока : 79,0 Мбайт (12%)
Размер потока : 79,0 Мбайт (12%) Заголовок : IsoMedia File Produced by Google, 5-11-2011
Заголовок : IsoMedia File Produced by Google, 5-11-2011 Дата кодирования : UTC 2014-12-12 21:03:10
Дата кодирования : UTC 2014-12-12 21:03:10 Дата пометки : UTC 2014-12-12 21:03:44
Дата пометки : UTC 2014-12-12 21:03:44
Скриншоты:


Время раздачи: 24/7. До первых 5 скачавших

 
Не забывайте говорить Спасибо. Не уходите с раздачи!   
Торрент: Зарегистрирован [18 янв 2015, 13:00] Для скачивания .torrent
необходима регистрация
Или скачать с помощью
MediaGet
Статус:
Проверен
 
.torrent скачан: 0 раз
Хэш: be7d84a479b31f186d77360500df171eb5e901f1
Размер: 1.38 ГБ (1 476 987 558 байт)
Стать Автором раздачи
 
 
Раздал: 6.67 ГБ
Скачал: 302.5 МБ
Ратио: 22.576
Сообщения: 374198
Зарегистрирован: 17 апр 2014, 11:05


  • Похожие торренты
    Ответы
    Просмотры
    Последнее сообщение

Вернуться в Видео для мобильных устройств

Ресурс не предоставляет электронные версии произведений, а занимается лишь коллекционированием и каталогизацией ссылок, присылаемых и публикуемых на форуме нашими читателями. Если вы являетесь правообладателем какого-либо представленного материала и не желаете чтобы ссылка на него находилась в нашем каталоге, свяжитесь с нами и мы незамедлительно удалим её. Файлы для обмена на трекере предоставлены пользователями сайта, и администрация не несёт ответственности за их содержание. Просьба не заливать файлы, защищенные авторскими правами, а также файлы нелегального содержания!
cron