Animal Planet. Укротитель по вызову / Call of the Wildman (2011-2013) SATRip [Серии 1-55 из ??]

 
 Статистика раздачи 
Размер: 14.15 ГБ   |  Зарегистрирован: 18 янв 2015, 02:16   |   .torrent скачан: 0 раз
Сидеров: 1  [ 0 байт/сек ]     Личеров: 0  [ 0 байт/сек ]  
  

Animal Planet. Укротитель по вызову / Call of the Wildman (2011-2013) SATRip [Серии 1-55 из ??]

Сообщение Thistoll » 18 янв 2015, 02:16

Animal Planet. Укротитель по вызову / Call of the Wildman (2011-2013) SATRip [Серии 1-55 из ??]

Режиссер / Телекомпания: Animal Planet
Жанр: Документальный

Описание:
Приглашаем вас окунуться в атмосферу девственной природы штата Кентукки вместе с легендарным лесничим Эрни Брауном-младшим, известным также как "укротитель черепах". Ему приходится выезжать по неожиданным вызовам, чтобы избавить жителей от докучливых животных, которыми кишат эти леса. В этом ему помогает собака Лолли. Возможно, его методы не совсем традиционны, но зато эффективны.

Продолжительность: 54 х ~ 00:22:00, 1 х ~ 00:43:00
Качество видео: SATRip

Перевод: Одноголосый закадровый, профессиональный

Видеокодек: Xvid
Битрейт видео: ~1520 Кбит/с
Размер кадра: 1-20 серия 640х352, 21-55 серия 720x400
Аудиокодек: MP3, 2ch
Битрейт аудио: 128.00 kbps
Общее
Полное имя : F:\видео\фильмы\Укротитель по вызову\07. Укротитель по вызову. Чудовище Байю.avi
Полное имя : F:\видео\фильмы\Укротитель по вызову\07. Укротитель по вызову. Чудовище Байю.avi Формат : AVI
Формат : AVI Формат/Информация : Audio Video Interleave
Формат/Информация : Audio Video Interleave Размер файла : 260 Мбайт
Размер файла : 260 Мбайт Продолжительность : 22 м.
Продолжительность : 22 м. Режим общего битрейта : Переменный
Режим общего битрейта : Переменный Общий поток : 1651 Кбит/сек
Общий поток : 1651 Кбит/сек Программа кодирования : VirtualDubMod 1.5.10.3 | www.virtualdub-fr.org || (build 2550/release)
Программа кодирования : VirtualDubMod 1.5.10.3 | www.virtualdub-fr.org || (build 2550/release) Библиотека кодирования : VirtualDubMod build 2550/release
Библиотека кодирования : VirtualDubMod build 2550/release
Видео
Идентификатор : 0
Идентификатор : 0 Формат : MPEG-4 Visual
Формат : MPEG-4 Visual Профиль формата : Advanced Simple@L5
Профиль формата : Advanced Simple@L5 Параметр BVOP формата : 1
Параметр BVOP формата : 1 Параметр QPel формата : Нет
Параметр QPel формата : Нет Параметр GMC формата : Без точки перехода
Параметр GMC формата : Без точки перехода Параметр матрицы формата : Default (H.263)
Параметр матрицы формата : Default (H.263) Идентификатор кодека : XVID
Идентификатор кодека : XVID Идентификатор кодека/Подсказка : XviD
Идентификатор кодека/Подсказка : XviD Продолжительность : 22 м.
Продолжительность : 22 м. Битрейт : 1519 Кбит/сек
Битрейт : 1519 Кбит/сек Ширина : 640 пикселей
Ширина : 640 пикселей Высота : 352 пикселя
Высота : 352 пикселя Соотношение сторон : 16:9
Соотношение сторон : 16:9 Частота кадров : 25,000 кадров/сек
Частота кадров : 25,000 кадров/сек Цветовое пространство : YUV
Цветовое пространство : YUV Субдискретизация насыщенности : 4:2:0
Субдискретизация насыщенности : 4:2:0 Битовая глубина : 8 бит
Битовая глубина : 8 бит Тип развёртки : Прогрессивная
Тип развёртки : Прогрессивная Метод сжатия : С потерями
Метод сжатия : С потерями Бит/(Пиксели*Кадры) : 0.270
Бит/(Пиксели*Кадры) : 0.270 Размер потока : 239 Мбайт (92%)
Размер потока : 239 Мбайт (92%) Библиотека кодирования : XviD 1.2.1 (UTC 2008-12-04)
Библиотека кодирования : XviD 1.2.1 (UTC 2008-12-04)
Аудио
Идентификатор : 1
Идентификатор : 1 Формат : MPEG Audio
Формат : MPEG Audio Версия формата : Version 1
Версия формата : Version 1 Профиль формата : Layer 3
Профиль формата : Layer 3 Режим : Joint stereo
Режим : Joint stereo Расширение режима : MS Stereo
Расширение режима : MS Stereo Идентификатор кодека : 55
Идентификатор кодека : 55 Идентификатор кодека/Подсказка : MP3
Идентификатор кодека/Подсказка : MP3 Продолжительность : 22 м.
Продолжительность : 22 м. Вид битрейта : Переменный
Вид битрейта : Переменный Битрейт : 119 Кбит/сек
Битрейт : 119 Кбит/сек Номинальный битрейт : 128 Кбит/сек
Номинальный битрейт : 128 Кбит/сек Каналы : 2 канала
Каналы : 2 канала Частота : 44,1 КГц
Частота : 44,1 КГц Метод сжатия : С потерями
Метод сжатия : С потерями Размер потока : 18,8 Мбайт (7%)
Размер потока : 18,8 Мбайт (7%) Выравнивание : Соединение по промежуткам
Выравнивание : Соединение по промежуткам Продолжительность промежутка : 26 мс. (0,65 видеокадр)
Продолжительность промежутка : 26 мс. (0,65 видеокадр) Время предзагрузки промежутка : 542 мс.
Время предзагрузки промежутка : 542 мс. Библиотека кодирования : LAME3.99
Библиотека кодирования : LAME3.99 Настройки программы : -m j -V 4 -q 2 -lowpass 17 --abr 128
Настройки программы : -m j -V 4 -q 2 -lowpass 17 --abr 128
Общее
Полное имя : F:\видео\фильмы\Укротитель по вызову\38. Укротитель по вызову. Движение — жизнь!.avi
Полное имя : F:\видео\фильмы\Укротитель по вызову\38. Укротитель по вызову. Движение — жизнь!.avi Формат : AVI
Формат : AVI Формат/Информация : Audio Video Interleave
Формат/Информация : Audio Video Interleave Размер файла : 517 Мбайт
Размер файла : 517 Мбайт Продолжительность : 43 м.
Продолжительность : 43 м. Режим общего битрейта : Переменный
Режим общего битрейта : Переменный Общий поток : 1654 Кбит/сек
Общий поток : 1654 Кбит/сек Программа кодирования : VirtualDubMod 1.5.10.3 | www.virtualdub-fr.org || (build 2550/release)
Программа кодирования : VirtualDubMod 1.5.10.3 | www.virtualdub-fr.org || (build 2550/release) Библиотека кодирования : VirtualDubMod build 2550/release
Библиотека кодирования : VirtualDubMod build 2550/release
Видео
Идентификатор : 0
Идентификатор : 0 Формат : MPEG-4 Visual
Формат : MPEG-4 Visual Профиль формата : Advanced Simple@L5
Профиль формата : Advanced Simple@L5 Параметр BVOP формата : 1
Параметр BVOP формата : 1 Параметр QPel формата : Нет
Параметр QPel формата : Нет Параметр GMC формата : Без точки перехода
Параметр GMC формата : Без точки перехода Параметр матрицы формата : Default (H.263)
Параметр матрицы формата : Default (H.263) Идентификатор кодека : XVID
Идентификатор кодека : XVID Идентификатор кодека/Подсказка : XviD
Идентификатор кодека/Подсказка : XviD Продолжительность : 43 м.
Продолжительность : 43 м. Битрейт : 1519 Кбит/сек
Битрейт : 1519 Кбит/сек Ширина : 720 пикселей
Ширина : 720 пикселей Высота : 400 пикселей
Высота : 400 пикселей Соотношение сторон : 16:9
Соотношение сторон : 16:9 Частота кадров : 25,000 кадров/сек
Частота кадров : 25,000 кадров/сек Цветовое пространство : YUV
Цветовое пространство : YUV Субдискретизация насыщенности : 4:2:0
Субдискретизация насыщенности : 4:2:0 Битовая глубина : 8 бит
Битовая глубина : 8 бит Тип развёртки : Прогрессивная
Тип развёртки : Прогрессивная Метод сжатия : С потерями
Метод сжатия : С потерями Бит/(Пиксели*Кадры) : 0.211
Бит/(Пиксели*Кадры) : 0.211 Размер потока : 475 Мбайт (92%)
Размер потока : 475 Мбайт (92%) Библиотека кодирования : XviD 1.2.1 (UTC 2008-12-04)
Библиотека кодирования : XviD 1.2.1 (UTC 2008-12-04)
Аудио
Идентификатор : 1
Идентификатор : 1 Формат : MPEG Audio
Формат : MPEG Audio Версия формата : Version 1
Версия формата : Version 1 Профиль формата : Layer 3
Профиль формата : Layer 3 Режим : Joint stereo
Режим : Joint stereo Расширение режима : MS Stereo
Расширение режима : MS Stereo Идентификатор кодека : 55
Идентификатор кодека : 55 Идентификатор кодека/Подсказка : MP3
Идентификатор кодека/Подсказка : MP3 Продолжительность : 43 м.
Продолжительность : 43 м. Вид битрейта : Переменный
Вид битрейта : Переменный Битрейт : 128 Кбит/сек
Битрейт : 128 Кбит/сек Каналы : 2 канала
Каналы : 2 канала Частота : 44,1 КГц
Частота : 44,1 КГц Метод сжатия : С потерями
Метод сжатия : С потерями Размер потока : 38,2 Мбайт (7%)
Размер потока : 38,2 Мбайт (7%) Выравнивание : Соединение по промежуткам
Выравнивание : Соединение по промежуткам Продолжительность промежутка : 26 мс. (0,65 видеокадр)
Продолжительность промежутка : 26 мс. (0,65 видеокадр) Время предзагрузки промежутка : 484 мс.
Время предзагрузки промежутка : 484 мс. Библиотека кодирования : LAME3.99
Библиотека кодирования : LAME3.99 Настройки программы : -m j -V 4 -q 2 -lowpass 17 --abr 128
Настройки программы : -m j -V 4 -q 2 -lowpass 17 --abr 128
Скриншоты:


Время раздачи: 24/7. До первых 5 скачавших

 
Не забывайте говорить Спасибо. Не уходите с раздачи!   
Торрент: Зарегистрирован [18 янв 2015, 02:16] Для скачивания .torrent
необходима регистрация
Или скачать с помощью
MediaGet
Статус:
Проверен
 
.torrent скачан: 0 раз
Хэш: 23e1404fce738fdb63b4fce580ecabd493cd8448
Размер: 14.15 ГБ (15 188 360 778 байт)
Стать Автором раздачи
 
 
Раздал: 6.67 ГБ
Скачал: 302.5 МБ
Ратио: 22.576
Сообщения: 374198
Зарегистрирован: 17 апр 2014, 11:05


  • Похожие торренты
    Ответы
    Просмотры
    Последнее сообщение

Вернуться в Animal Planet

Ресурс не предоставляет электронные версии произведений, а занимается лишь коллекционированием и каталогизацией ссылок, присылаемых и публикуемых на форуме нашими читателями. Если вы являетесь правообладателем какого-либо представленного материала и не желаете чтобы ссылка на него находилась в нашем каталоге, свяжитесь с нами и мы незамедлительно удалим её. Файлы для обмена на трекере предоставлены пользователями сайта, и администрация не несёт ответственности за их содержание. Просьба не заливать файлы, защищенные авторскими правами, а также файлы нелегального содержания!
cron