Ярость (Fury) (2014) [MP4 | 1024x432] <BDRip H.264>

 
 Статистика раздачи 
Размер: 2.72 ГБ   |  Зарегистрирован: 16 янв 2015, 17:48   |   .torrent скачан: 1 раз
Сидеров: 7  [ 0 байт/сек ]     Личеров: 1  [ 0 байт/сек ]  
  

Ярость (Fury) (2014) [MP4 | 1024x432] <BDRip H.264>

Сообщение Thistoll » 16 янв 2015, 17:48

Ярость (Fury) (2014) BDRip

«War never ends quietly»

Год выпуска: 2014
Производство: Великобритания, США, Китай
Жанр: Боевик, Драма, Военный

Описание фильма:
Стоит апрель 1945 года, и победа над немцами уже близка: союзники уверенно продвигаются вглубь вражеской территории, и оказываемое им сопротивление становится слабее день ото дня. Это, однако, совсем не значит, что на пути к победе союзные войска не потеряют еще множество людей, и многие солдаты сознают, что смерть ждет на расстоянии вытянутой руки. Среди закаленных в бою пессимистов, каждый день ведущих ожесточенные бои во имя победы, экипаж танка, на чьем дуле намалевано слово Ярость.

Режиссер: Дэвид Эйр
Актеры: Брэд Питт, Шайа ЛаБаф, Логан Лерман, Майкл Пенья, Джон Бернтал, Джейсон Айзекс

Продолжительность: 02:14:38
Перевод: Дублированный (iTunes)


Дата мировой премьеры: 22 октября 2014
Дата российской премьеры: 30 октября 2014
Дата выхода DVD/Blu-Ray релиза: 12 февраля 2015
Формат: MP4 (ISO v.2)
Качество видео: BDRip 576p
Видеокодек: MPEG-4 AVC/H.264
Битрейт видео: ~2695 kb/s
Размер кадра: 1024x432
Аудиокодек: AAC
Битрейт аудио: 192 kb/s 2.0 CBR LC
Код:
Код: Выделить всё
General
Complete name               : D:\Фильмы\Ярость.2014.BDRip.576p.NNM-Club.mp4
Format                      : MPEG-4
Format profile              : Base Media / Version 2
Codec ID                    : mp42
File size                   : 2.72 GiB
Duration                    : 2h 14mn
Overall bit rate            : 2 891 Kbps
Encoded date                : UTC 2015-01-15 03:26:21
Tagged date                 : UTC 2015-01-15 03:26:21
Writing library             : AVS

Video
ID                          : 1
Format                      : AVC
Format/Info                 : Advanced Video Codec
Format profile              :
Format settings, CABAC      : Yes
Format settings, ReFrames   : 3 frames
Codec ID                    : avc1
Codec ID/Info               : Advanced Video Coding
Duration                    : 2h 14mn
Bit rate                    : 2 695 Kbps
Width                       : 1 024 pixels
Height                      : 432 pixels
Display aspect ratio        : 2.40:1
Frame rate mode             : Constant
Frame rate                  : 23.976 fps
Color space                 : YUV
Chroma subsampling          : 4:2:0
Bit depth                   : 8 bits
Scan type                   : Progressive
Bits/(Pixel*Frame)          : 0.254
Stream size                 : 2.53 GiB (93%)
Language                    : English
Encoded date                : UTC 2015-01-15 03:26:21
Tagged date                 : UTC 2015-01-15 03:26:21
Color primaries             : BT.709
Transfer characteristics    : BT.709
Matrix coefficients         : BT.709

Audio
ID                          : 2
Format                      : AAC
Format/Info                 : Advanced Audio Codec
Format profile              : LC
Codec ID                    : 40
Duration                    : 2h 14mn
Bit rate mode               : Constant
Bit rate                    : 192 Kbps
Channel(s)                  : 2 channels
Channel positions           : Front: L R
Sampling rate               : 44.1 KHz
Compression mode            : Lossy
Stream size                 : 182 MiB (7%)
Language                    : English
Encoded date                : UTC 2015-01-15 03:26:21
Tagged date                 : UTC 2015-01-15 03:26:21
Штурмовая винтовка, которую носит персонаж Брэда Питта, — это немецкая StG 44, также известная как Sturmgewehr 44.
Основные танки Шерман, которые использовались в фильме, были:
M4A2 76мм HVSS из Бовингтонского танкового музея,
M4A2 75мм VVSS от Tay Restorations,
M4A2 76мм HVSS от Jeep Sud Est,
M4A4 75MM VVSS от Adrian Barrell,
M4A1 76mm VVSS от Barratt Homes.
Шайа ЛаБаф спилил себе один из зубов для съёмок в фильме и не мылся долгое время, чем злил съёмочную группу и актёров.
Белорусская компания Wargaming приняла участие в продвижении фильма. Первое видео фильма показали на стенде «World of Tanks» на E3 2014.
В фильме использовались две марки сигарет — Lucky Strike и Camel. Если кому-то требовалось курить в кадре, актеры могли выбрать либо травяные сигареты, либо настоящие без фильтра. Травяные сигареты не содержат вредных химических веществ, но они полностью сгорают примерно за 1 минуту. Сигара же, которую курит доктор пехотного батальона во время операции, является подлинной кубинской сигарой, как и все остальные сигары в фильме.
Скриншоты



Время раздачи: Круглосуточно, до первых 10-и скачавших
Приятного просмотра!
 
Не забывайте говорить Спасибо. Не уходите с раздачи!   
Торрент: Зарегистрирован [16 янв 2015, 17:48] Для скачивания .torrent
необходима регистрация
Или скачать с помощью
MediaGet
Статус:
Проверен
 
.torrent скачан: 1 раз
Хэш: 1eed8060de1a3b79a0290ed579540771ec9c44f5
Размер: 2.72 ГБ (2 919 021 163 байт)
Стать Автором раздачи
 
 
Раздал: 6.67 ГБ
Скачал: 302.5 МБ
Ратио: 22.576
Сообщения: 374198
Зарегистрирован: 17 апр 2014, 11:05


  • Похожие торренты
    Ответы
    Просмотры
    Последнее сообщение

Вернуться в Видео для мобильных устройств

Ресурс не предоставляет электронные версии произведений, а занимается лишь коллекционированием и каталогизацией ссылок, присылаемых и публикуемых на форуме нашими читателями. Если вы являетесь правообладателем какого-либо представленного материала и не желаете чтобы ссылка на него находилась в нашем каталоге, свяжитесь с нами и мы незамедлительно удалим её. Файлы для обмена на трекере предоставлены пользователями сайта, и администрация не несёт ответственности за их содержание. Просьба не заливать файлы, защищенные авторскими правами, а также файлы нелегального содержания!
cron