Холод в июле (Cold in July) (2014) [MP4 | 1024x424] <BDRip H.264>

 
 Статистика раздачи 
Размер: 2.27 ГБ   |  Зарегистрирован: 15 янв 2015, 22:12   |   .torrent скачан: 0 раз
Сидеров: 1  [ 0 байт/сек ]     Личеров: 0  [ 0 байт/сек ]  
  

Холод в июле (Cold in July) (2014) [MP4 | 1024x424] <BDRip H.264>

Сообщение Thistoll » 15 янв 2015, 22:12

Холод в июле (Cold in July) (2014) BDRip

«Единожды убившего уже не остановить»

Год выпуска: 2014
Производство: США, Франция
Жанр: Триллер, Криминал, Драма

Описание фильма:
Ричард Дэйн, тихий и безобидный мужчина, случайно застрелил забравшегося в его дом грабителя. Полиция опознала в убитом давно находящегося в розыске преступника, труп забрали и быстро похоронили. Однако вскоре появляется отец погибшего, Бен Рассел, живущий по принципу «око за око». И теперь Дэйну приходится защищать себя и своего ребенка.

Режиссер: Джим Микл
Актеры: Винесса Шоу, Уайатт Расселл, Майкл С. Холл, Дон Джонсон, Сэм Шепард, Ник Дамичи, Лэнни Флаэрти, Кен Холмс, Рэйчел Зейгер-Хааг, Кристин Гриффит

Продолжительность: 01:50:02
Перевод: Дублированный (Лицензия)


Дата мировой премьеры: 18 января 2014
Дата российской премьеры: 18 сентября 2014
Формат: MP4 (ISO v.2)
Качество видео: BDRip 576p
Видеокодек: MPEG-4 AVC/H.264
Битрейт видео: ~2751 kb/s
Размер кадра: 1024x424
Аудиокодек: AAC
Битрейт аудио: 192 kb/s 2.0 CBR LC
Код:
Код: Выделить всё
General
Complete name               : D:\Фильмы\Холод в июле.2014.BDRip.576p.NNM-Club.mp4
Format                      : MPEG-4
Format profile              : Base Media / Version 2
Codec ID                    : mp42
File size                   : 2.27 GiB
Duration                    : 1h 50mn
Overall bit rate            : 2 947 Kbps
Encoded date                : UTC 2015-01-14 08:28:27
Tagged date                 : UTC 2015-01-14 08:28:27
Writing library             : AVS

Video
ID                          : 1
Format                      : AVC
Format/Info                 : Advanced Video Codec
Format profile              :
Format settings, CABAC      : Yes
Format settings, ReFrames   : 5 frames
Codec ID                    : avc1
Codec ID/Info               : Advanced Video Coding
Duration                    : 1h 50mn
Bit rate                    : 2 751 Kbps
Width                       : 1 024 pixels
Height                      : 424 pixels
Display aspect ratio        : 2.40:1
Frame rate mode             : Constant
Frame rate                  : 23.976 fps
Color space                 : YUV
Chroma subsampling          : 4:2:0
Bit depth                   : 8 bits
Scan type                   : Progressive
Bits/(Pixel*Frame)          : 0.264
Stream size                 : 2.11 GiB (93%)
Language                    : English
Encoded date                : UTC 2015-01-14 08:28:27
Tagged date                 : UTC 2015-01-14 08:28:27
Color primaries             : BT.709
Transfer characteristics    : BT.709
Matrix coefficients         : BT.709

Audio
ID                          : 2
Format                      : AAC
Format/Info                 : Advanced Audio Codec
Format profile              : LC
Codec ID                    : 40
Duration                    : 1h 50mn
Bit rate mode               : Constant
Bit rate                    : 192 Kbps
Channel(s)                  : 2 channels
Channel positions           : Front: L R
Sampling rate               : 44.1 KHz
Compression mode            : Lossy
Stream size                 : 149 MiB (6%)
Language                    : English
Encoded date                : UTC 2015-01-14 08:28:27
Tagged date                 : UTC 2015-01-14 08:28:27
Скриншоты



Время раздачи: Круглосуточно, до первых 10-и скачавших
Приятного просмотра!
 
Не забывайте говорить Спасибо. Не уходите с раздачи!   
Торрент: Зарегистрирован [15 янв 2015, 22:12] Для скачивания .torrent
необходима регистрация
Или скачать с помощью
MediaGet
Статус:
Проверен
 
.torrent скачан: 0 раз
Хэш: 316690736e0a4e17077a24588578fc62cdd5d812
Размер: 2.27 ГБ (2 432 186 608 байт)
Стать Автором раздачи
 
 
Раздал: 6.67 ГБ
Скачал: 302.5 МБ
Ратио: 22.576
Сообщения: 374198
Зарегистрирован: 17 апр 2014, 11:05


  • Похожие торренты
    Ответы
    Просмотры
    Последнее сообщение

Вернуться в Видео для мобильных устройств

Ресурс не предоставляет электронные версии произведений, а занимается лишь коллекционированием и каталогизацией ссылок, присылаемых и публикуемых на форуме нашими читателями. Если вы являетесь правообладателем какого-либо представленного материала и не желаете чтобы ссылка на него находилась в нашем каталоге, свяжитесь с нами и мы незамедлительно удалим её. Файлы для обмена на трекере предоставлены пользователями сайта, и администрация не несёт ответственности за их содержание. Просьба не заливать файлы, защищенные авторскими правами, а также файлы нелегального содержания!
cron