Настя Любимова - Снег (2012) WEBRip [H.264/720p-LQ]

 
 Статистика раздачи 
Размер: 87.01 МБ   |  Зарегистрирован: 15 янв 2015, 22:07   |   .torrent скачан: 0 раз
Сидеров: 1  [ 0 байт/сек ]     Личеров: 0  [ 0 байт/сек ]  
  

Настя Любимова - Снег (2012) WEBRip [H.264/720p-LQ]

Сообщение Thistoll » 15 янв 2015, 22:07

Настя Любимова - Снег (2012) WEBRip [H.264/720p-LQ]

Год выпуска: 2012
Жанр: Pop

Продолжительность: 00:03:52

Видеокодек: MPEG-4 AVC/H.264
Битрейт видео: ~2.8 Mbps
Размер кадра: 1280x720
Качество видео: WEB-Rip
Аудиокодек: AC-3, 2ch
Битрейт аудио: 256 Kbps

О певице:
Поддержку этой певице оказывают такие телеканалы как МУЗ TV, RU TV ,MTV, MUSIC BOX,РОССИЯ 2. А ее песни звучат на большинстве радиостанций России и за рубежом. FM волны радио RECORD, METRO, КЕКС ФМ, РУ ФМ и другие.
В ноябре 2012 года Настя отправилась в совместное музыкально-спортивное турне по России с мировой легендой бокса РОЕМ ДЖОНСОМ ( Roy Jones Jr.)
10 городов, 10 уникальных концертов, сила и искусство, музыка и спорт, впервые объединенные в рамках беспрецедентного шоу – такого не ожидал никто!
Легендарный боксер сам выбрал Анастасию из списка многих звезд .
Ее выступление погружает в незабываемую атмосферу ! звучание голоса обволакивает ваше сознание, а бездонные, горящие энтузиазмом глаза зажигают страстью.
Поэтому на живом концерте Насти Любимовой сомнения и проблемы отпадают, слушатели видят яркую непоколебимую эффектную девушку, которая полностью отдаётся любимому делу, всецело её поглощающее.
Общее
Уникальный идентификатор : 168348648403719580577546155723716462494 (0x7EA6C532C2870C1E037BA147C20E879E)
Полное имя : Настя Любимова - Снег (OFFICIAL VIDEO).mkv
Формат : Matroska
Версия формата : Version 2
Размер файла : 87,0 Мбайт
Продолжительность : 3 м. 52 с.
Общий поток : 3137 Кбит/сек
Программа кодирования : Lavf51.12.1
Библиотека кодирования : Lavf51.12.1

Видео
Идентификатор : 1
Формат : AVC
Формат/Информация : Advanced Video Codec
Профиль формата :
Параметр CABAC формата : Нет
Параметр ReFrames формата : 1 кадр
Параметр GOP формата : M=1, N=12
Идентификатор кодека : V_MPEG4/ISO/AVC
Продолжительность : 3 м. 52 с.
Битрейт : 2819 Кбит/сек
Ширина : 1280 пикселей
Высота : 720 пикселей
Соотношение сторон : 16:9
Режим частоты кадров : Постоянный
Частота кадров : 25,000 кадров/сек
Цветовое пространство : YUV
Субдискретизация насыщенности : 4:2:0
Битовая глубина : 8 бит
Тип развёртки : Прогрессивная
Бит/(Пиксели*Кадры) : 0.122
Размер потока : 78,2 Мбайт (90%)
Default : Да
Forced : Нет

Аудио
Идентификатор : 2
Формат : AC-3
Формат/Информация : Audio Coding 3
Расширение режима : CM (complete main)
Параметр Endianness формата : Big
Идентификатор кодека : A_AC3
Продолжительность : 3 м. 52 с.
Вид битрейта : Постоянный
Битрейт : 256 Кбит/сек
Каналы : 2 канала
Расположение каналов : Front: L R
Частота : 48,0 КГц
Битовая глубина : 16 бит
Метод сжатия : С потерями
Размер потока : 7,10 Мбайт (8%)
Default : Да
Forced : Нет

Время раздачи: 24/7
 
Не забывайте говорить Спасибо. Не уходите с раздачи!   
Торрент: Зарегистрирован [15 янв 2015, 22:07] Скачать торрент
Скачать торрент
[ Размер 14.45 КБ / Просмотров 14 ]
Статус:
Проверен
 
.torrent скачан: 0 раз
Хэш: 1879ebf51523bcd7660bbdf6b5395ab398606ae7
Размер: 87.01 МБ (91 236 033 байт)
Стать Автором раздачи
 
 
Раздал: 6.67 ГБ
Скачал: 302.5 МБ
Ратио: 22.576
Сообщения: 374198
Зарегистрирован: 17 апр 2014, 11:05


  • Похожие торренты
    Ответы
    Просмотры
    Последнее сообщение

Вернуться в Музыкальные клипы (транзит)

Ресурс не предоставляет электронные версии произведений, а занимается лишь коллекционированием и каталогизацией ссылок, присылаемых и публикуемых на форуме нашими читателями. Если вы являетесь правообладателем какого-либо представленного материала и не желаете чтобы ссылка на него находилась в нашем каталоге, свяжитесь с нами и мы незамедлительно удалим её. Файлы для обмена на трекере предоставлены пользователями сайта, и администрация не несёт ответственности за их содержание. Просьба не заливать файлы, защищенные авторскими правами, а также файлы нелегального содержания!
cron