(Rock) [LP] [24/96] Телевизор - Шествие Рыб - 1988, FLAC (tracks+.cue)

 
 Статистика раздачи 
Размер: 727.6 МБ   |  Зарегистрирован: 13 янв 2015, 23:03   |   .torrent скачан: 0 раз
Сидеров: 1  [ 0 байт/сек ]     Личеров: 0  [ 0 байт/сек ]  
  

(Rock) [LP] [24/96] Телевизор - Шествие Рыб - 1988, FLAC (tracks+.cue)

Сообщение bagouser » 13 янв 2015, 23:03

Телевизор - Шествие Рыб

Жанр: Rock
Носитель: LP
Год выпуска: 1988
Лейбл: Melodya (VSG)
Страна-производитель: USSR
Аудио кодек: FLAC
Тип рипа: tracks+.cue
Формат записи: 32/192
Формат раздачи: 24/96
Продолжительность: 35.32 min
Треклист:
01. Люди в ожидании
02. Муха на стекле
03. Город
04. Я не виноват
05. Вчера
06. Цветные сны
07. Человек из ваты
08. Дальний восток
09. Шествие рыб
10. Обо мне
11. Мания величия
12. Товарищ Сухов
13. С вами говорит телевизор

Источник оцифровки: автором раздачи
Код класса состояния винила: VG+
Устройство воспроизведения: Электроника ЭП 017С
Головка звукоснимателя: Audio-Technica AT95
Предварительный усилитель: Бриг-001
АЦП: VIA HD audio device
Программа-оцифровщик: Izotope RX 4 Advanced
Обработка: Manual
foobar2000 1.1.10 / Dynamic Range Meter 1.1.1
log date: 2015-01-13 15:33:12

--------------------------------------------------------------------------------
Analyzed: Телевизор / Шествие рыб
--------------------------------------------------------------------------------

DR Peak RMS Duration Track
--------------------------------------------------------------------------------
DR13 -4.77 dB -22.00 dB 2:51 ?-Люди в ожидании
DR13 -3.53 dB -19.68 dB 2:11 ?-Муха на стекле
DR12 -3.03 dB -18.62 dB 3:04 ?-Город
DR15 -1.16 dB -19.42 dB 2:17 ?-Я не виноват
DR13 -1.39 dB -19.53 dB 2:06 ?-Вчера
DR14 -2.85 dB -19.46 dB 3:29 ?-Цветные сны
DR13 -3.06 dB -19.05 dB 2:20 ?-Человек из ваты
DR13 -4.21 dB -18.95 dB 2:24 ?-Дальний восток
DR13 -2.40 dB -18.25 dB 4:03 ?-Шествие рыб
DR12 -2.82 dB -17.80 dB 2:15 ?-Обо мне
DR14 -3.19 dB -19.22 dB 1:43 ?-Мания величия
DR15 -3.30 dB -20.97 dB 3:27 ?-Товарищ Сухов
DR13 -2.51 dB -18.74 dB 3:23 ?-С вами говорит телевизор
--------------------------------------------------------------------------------

Number of tracks: 13
Official DR value: DR13

Samplerate: 96000 Hz
Channels: 2
Bits per sample: 24
Bitrate: 2797 kbps
Codec: FLAC
================================================================================
имеется пополнение:
если надо,вне очереди можно рипнут
 
Не забывайте говорить Спасибо. Не уходите с раздачи!   
Торрент: Зарегистрирован [13 янв 2015, 23:03] Скачать торрент
Скачать торрент
[ Размер 16.08 КБ / Просмотров 19 ]
Статус:
Проверен
 
.torrent скачан: 0 раз
Хэш: 303e6fb93afc07316bf24bba15d47595371ab980
Размер: 727.6 МБ (762 944 880 байт)
Стать Автором раздачи
 
Аватара пользователя
 
Раздал: 3.77 ТБ
Скачал: 406.3 ГБ
Ратио: 9.496
Сообщения: 468705
Зарегистрирован: 20 янв 2011, 21:15


  • Похожие торренты
    Ответы
    Просмотры
    Последнее сообщение

Вернуться в Отечественный рок (собственные оцифровки)

Ресурс не предоставляет электронные версии произведений, а занимается лишь коллекционированием и каталогизацией ссылок, присылаемых и публикуемых на форуме нашими читателями. Если вы являетесь правообладателем какого-либо представленного материала и не желаете чтобы ссылка на него находилась в нашем каталоге, свяжитесь с нами и мы незамедлительно удалим её. Файлы для обмена на трекере предоставлены пользователями сайта, и администрация не несёт ответственности за их содержание. Просьба не заливать файлы, защищенные авторскими правами, а также файлы нелегального содержания!
cron