Сборник клипов / Super greatest hits-Papa-Karlo (1970-е-80-е-90-е-2000-е) SATRip

 
 Статистика раздачи 
Размер: 2.06 ГБ   |  Зарегистрирован: 12 янв 2015, 19:55   |   .torrent скачан: 1 раз
Сидеров: 1  [ 0 байт/сек ]     Личеров: 0  [ 0 байт/сек ]  
  

Сборник клипов / Super greatest hits-Papa-Karlo (1970-е-80-е-90-е-2000-е) SATRip

Сообщение Thistoll » 12 янв 2015, 19:55

Сборник клипов / Super greatest hits-Papa-Karlo (1970-е-80-е-90-е-2000-е) SATRip

Жанр: Музыка

Описание фильма:
Треклист:
Adriano Celentano - Formula Due 1973
Alex C feat. Y Ass - Du Hast Den Schonsten Arsch Der Welt
Anita Ward-Ring My Bell
Art Garfunkel - Bright Eyes
Bad Boys Blue - You're A Woman
Barclay James Harvest - Back to the wall
Britney Spears - Breathe On Me
C.C. Catch - Stranger By Night
Gilla - Bend Me Shape Me
Gina T - Tokyo by Night
Golden Boy Feat Miss Kittin - Rippin Kittin (Glove Tension Club Edit)
Grace Jones - I've seen that face before
Imagination-Just AnIllusion
Infernal - From Paris To Berlin
Kim Wilde-Cambodja
Kiss - I Was Made For Loving You (Dynasty 1979)
Laura Branigan-Self Control-2
Melanie C - I Turn To You
Mishale - MTV version
Mr. President - Coco Jambo
Nena & Kim Wilde - Anyplace, Anywhere, Anytime
Pat Benatar - Love Is Battlefield (Precious Time 1984)
Pia Zadora & Jermaine Jackson - When the rain begins to fall
Rammstein - Engel
Reel 2 Real feat. The Mad Stuntman - I Like To Move It
Rollergirl - Geisha Dreams Music Video
Secret Service - Oh Susie
Survivor - Eye Of The Tiger (Eye Of The Tiger 1982)
T7-Passion
The Flirts - Passion
Thomas Anders - Independent Girl 2004.A
U96 - Love Religion

Продолжительность: 02:00:00
Качество видео: SATRip
Перевод: Отсутствует
Релиз от: Papa-Karlo

Видеокодек: DivX 4/5/6
Битрейт видео: ~2 203 Kbps
Размер кадра: 720х544
Аудиокодек: AC3
Битрейт аудио: 192 Kbps
Код:
Код: Выделить всё
Super greatest hits-Papa-Karlo.mkv
Format                                   : Matroska
Format version                           : Version 4 / Version 2
File size                                : 2.06 GiB
Duration                                 : 2h 0mn
Overall bit rate                         : 2 443 Kbps
Encoded date                             : UTC 2014-12-24 14:52:46
Writing application                      : mkvmerge v7.3.0 ('Nouages') 32bit built on Oct 22 2014 18:44:01
Writing library                          : libebml v1.3.0 + libmatroska v1.4.1
DURATION                                 : 02:00:29.000000000
NUMBER_OF_FRAMES                         : 225826
NUMBER_OF_BYTES                          : 173434368
_STATISTICS_WRITING_APP                  : mkvmerge v7.3.0 ('Nouages') 32bit built on Oct 22 2014 18:44:01
_STATISTICS_WRITING_DATE_UTC             : 2014-12-24 14:52:46
_STATISTICS_TAGS                         : BPS DURATION NUMBER_OF_FRAMES NUMBER_OF_BYTES

Video
ID                                       : 1
Format                                   : MPEG-4 Visual
Format profile                           : Advanced Simple@L5
Format settings, BVOP                    : 2
Format settings, QPel                    : No
Format settings, GMC                     : No warppoints
Format settings, Matrix                  : Default (MPEG)
Codec ID                                 : V_MS/VFW/FOURCC / DX50
Codec ID/Hint                            : DivX 5
Duration                                 : 2h 0mn
Bit rate                                 : 2 203 Kbps
Width                                    : 720 pixels
Height                                   : 544 pixels
Display aspect ratio                     : 4:3
Frame rate mode                          : Constant
Frame rate                               : 25.000 fps
Color space                              : YUV
Chroma subsampling                       : 4:2:0
Bit depth                                : 8 bits
Scan type                                : Progressive
Compression mode                         : Lossy
Bits/(Pixel*Frame)                       : 0.225
Stream size                              : 1.85 GiB (90%)
Writing library                          : XviD 1.2.1 (UTC 2008-12-04)
Default                                  : Yes
Forced                                   : No

Audio
ID                                       : 2
Format                                   : AC-3
Format/Info                              : Audio Coding 3
Mode extension                           : CM (complete main)
Format settings, Endianness              : Big
Codec ID                                 : A_AC3
Duration                                 : 2h 0mn
Bit rate mode                            : Constant
Bit rate                                 : 192 Kbps
Channel(s)                               : 2 channels
Channel positions                        : Front: L R
Sampling rate                            : 48.0 KHz
Bit depth                                : 16 bits
Compression mode                         : Lossy
Stream size                              : 165 MiB (8%)
Default                                  : Yes
Forced                                   : No
Скриншоты:












Время раздачи: 24/7
 
Не забывайте говорить Спасибо. Не уходите с раздачи!   
Торрент: Зарегистрирован [12 янв 2015, 19:55] Скачать торрент
Скачать торрент
[ Размер 11.02 КБ / Просмотров 30 ]
Статус:
Проверен
 
.torrent скачан: 1 раз
Хэш: fb53b8c9039685b16ba4dd5698c51d81bf02ab4e
Размер: 2.06 ГБ (2 207 854 491 байт)
Стать Автором раздачи
 
 
Раздал: 6.67 ГБ
Скачал: 302.5 МБ
Ратио: 22.576
Сообщения: 374198
Зарегистрирован: 17 апр 2014, 11:05


  • Похожие торренты
    Ответы
    Просмотры
    Последнее сообщение

Вернуться в Музыкальные клипы (транзит)

Ресурс не предоставляет электронные версии произведений, а занимается лишь коллекционированием и каталогизацией ссылок, присылаемых и публикуемых на форуме нашими читателями. Если вы являетесь правообладателем какого-либо представленного материала и не желаете чтобы ссылка на него находилась в нашем каталоге, свяжитесь с нами и мы незамедлительно удалим её. Файлы для обмена на трекере предоставлены пользователями сайта, и администрация не несёт ответственности за их содержание. Просьба не заливать файлы, защищенные авторскими правами, а также файлы нелегального содержания!
cron