[VIDEO] Класс коррекции (Иван И. Твердовский) [2014, драма, WEB-DLRip] [MP4, 960x]

 
 Статистика раздачи 
Размер: 831.78 МБ   |  Зарегистрирован: 12 янв 2015, 02:05   |   .torrent скачан: 0 раз
Сидеров: 1  [ 0 байт/сек ]     Личеров: 2  [ 0 байт/сек ]  
  

[VIDEO] Класс коррекции (Иван И. Твердовский) [2014, драма, WEB-DLRip] [MP4, 960x]

Сообщение Satch » 12 янв 2015, 02:05

Класс коррекции

Год выпуска: 2014
Страна: Россия (Новые люди)
Жанр: Драма
Продолжительность: 01:28:35
Перевод: Не требуется
Cубтитры: Нет
Режиссер: Иван И. Твердовский
В ролях: Мария Поезжаева, Никита Кукушкин, Филипп Авдеев, Ольга Лапшина, Наталья Павленкова, Юлия Серина, Артем Маркарьян, Мария Урядова, Наталья Домерецкая, Ирина Вилкова
Описание: После многолетнего домашнего обучения, девочка-колясочница Лена Чехова переводится в среднюю общеобразовательную школу, в класс коррекционного обучения, объединивший в себе детей с различными отклонениями. Там она не только встречает свою первую любовь, но и впервые в своей жизни сталкивается с жестокостью окружающего мира.

Качество: WEB-DLRip (Рип с WEB-DL 1080p)
Формат: MP4
Видео: AVC, 960x536 (16:9), 1177 kbps, 25.000 fps
Аудио: Русский, AAC, 2 ch, 48 kHz, 128 kbps [Original]
Кинотавр, 2014 год
Победитель (2):
Лучший дебют (Иван И. Твердовский)
Приз жюри кинопрокатчиков
Номинации (1):
Главный приз
x264 [info]: frame I:610 Avg QP:17.41 size: 32787
x264 [info]: frame P:38528 Avg QP:21.04 size: 11627
x264 [info]: frame B:93739 Avg QP:23.02 size: 3347
x264 [info]: consecutive B-frames: 3.8% 8.7% 12.3% 56.5% 7.3% 5.5% 0.8% 4.5% 0.7%

x264 [total]: encoded 132877 frames, 8.46 fps, 1176.56 kb/s
General
Complete name : [VIDEO] Klass.Korrekcii.2014.WEB-DLRip.x264.960x(semen_52-TNC).mp4
Format : MPEG-4
Format profile : Base Media
Codec ID : isom
File size : 832 MiB
Duration : 1h 28mn
Overall bit rate mode : Variable
Overall bit rate : 1 313 Kbps
Movie name : [VIDEO] Klass Korrekcii 2014 WEB-DLRip x264 960x(semen_52-TNC)
ContentType : Short Film
Encoded date : UTC 2015-01-11 15:32:59
Tagged date : UTC 2015-01-11 15:35:09
Writing application : MkvToMp4 version: 0.224 (x64)
Comment : Rip by semen_52-TNC

Video
ID : 1
Format : AVC
Format/Info : Advanced Video Codec
Format profile :
Format settings, CABAC : Yes
Format settings, ReFrames : 8 frames
Codec ID : avc1
Codec ID/Info : Advanced Video Coding
Duration : 1h 28mn
Bit rate : 1 177 Kbps
Maximum bit rate : 4 700 Kbps
Width : 960 pixels
Height : 536 pixels
Display aspect ratio : 16:9
Frame rate mode : Constant
Frame rate : 25.000 fps
Color space : YUV
Chroma subsampling : 4:2:0
Bit depth : 8 bits
Scan type : Progressive
Bits/(Pixel*Frame) : 0.091
Stream size : 745 MiB (90%)
Writing library : x264 core 130 r2273 b3065e6
Encoding settings : cabac=1 / ref=8 / deblock=1:-1:-1 / analyse=0x3:0x133 / me=esa / subme=9 / psy=1 / psy_rd=1.00:0.15 / mixed_ref=1 / me_range=32 / chroma_me=1 / trellis=2 / 8x8dct=1 / cqm=0 / deadzone=21,11 / fast_pskip=0 / chroma_qp_offset=-3 / threads=12 / lookahead_threads=2 / sliced_threads=0 / nr=0 / decimate=1 / interlaced=0 / bluray_compat=0 / constrained_intra=0 / bframes=8 / b_pyramid=2 / b_adapt=2 / b_bias=0 / direct=1 / weightb=1 / open_gop=0 / weightp=2 / keyint=250 / keyint_min=25 / scenecut=40 / intra_refresh=0 / rc_lookahead=60 / rc=crf / mbtree=1 / crf=21.0 / qcomp=0.60 / qpmin=0 / qpmax=69 / qpstep=4 / ip_ratio=1.40 / aq=1:1.00
Language : English
Encoded date : UTC 2015-01-11 15:32:59
Tagged date : UTC 2015-01-11 15:33:17

Audio
ID : 2
Format : AAC
Format/Info : Advanced Audio Codec
Format profile : LC
Codec ID : 40
Duration : 1h 28mn
Bit rate mode : Variable
Bit rate : 128 Kbps
Maximum bit rate : 135 Kbps
Channel(s) : 2 channels
Channel positions : Front: L R
Sampling rate : 48.0 KHz
Compression mode : Lossy
Stream size : 81.1 MiB (10%)
Title : Original
Language : Russian
Encoded date : UTC 2015-01-11 15:33:12
Tagged date : UTC 2015-01-11 15:33:17
 
Не забывайте говорить Спасибо. Не уходите с раздачи!   
Торрент: Зарегистрирован [12 янв 2015, 02:05] Для скачивания .torrent
необходима регистрация
Или скачать с помощью
MediaGet
Статус:
Проверен
 
.torrent скачан: 0 раз
Хэш: 0771453a37727b6d423aa53c955c67c8693875e2
Размер: 831.78 МБ (872 185 939 байт)
Стать Автором раздачи
 
Аватара пользователя
 
Раздал: 2.45 ГБ
Скачал: 15.94 МБ
Ратио: 157.696
Сообщения: 337733
Зарегистрирован: 16 янв 2012, 17:03


  • Похожие торренты
    Ответы
    Просмотры
    Последнее сообщение

Вернуться в Видео для мобильных устройств

Ресурс не предоставляет электронные версии произведений, а занимается лишь коллекционированием и каталогизацией ссылок, присылаемых и публикуемых на форуме нашими читателями. Если вы являетесь правообладателем какого-либо представленного материала и не желаете чтобы ссылка на него находилась в нашем каталоге, свяжитесь с нами и мы незамедлительно удалим её. Файлы для обмена на трекере предоставлены пользователями сайта, и администрация не несёт ответственности за их содержание. Просьба не заливать файлы, защищенные авторскими правами, а также файлы нелегального содержания!
cron