(Siberian Punk) [MC] [24/48] П.О.Г.О. - Пограничный Отряд Гражданской Обороны - 1988, FLAC (image+.cue)

 
 Статистика раздачи 
Размер: 402.92 МБ   |  Зарегистрирован: 10 янв 2015, 01:34   |   .torrent скачан: 1 раз
Сидеров: 1  [ 0 байт/сек ]     Личеров: 0  [ 0 байт/сек ]  
  

(Siberian Punk) [MC] [24/48] П.О.Г.О. - Пограничный Отряд Гражданской Обороны - 1988, FLAC (image+.cue)

Сообщение ExaByte » 10 янв 2015, 01:34

П.О.Г.О. - Пограничный Отряд Гражданской Обороны

Жанр: Siberian Punk
Носитель: MC
Год выпуска: 1988
Лейбл: Гроб-рекордз
Страна-производитель: СССР
Аудио кодек: FLAC
Тип рипа: image+.cue
Формат записи: 24/96
Формат раздачи: 24/48
Продолжительность: 00:29:34
Треклист:
01. Приятное соседство
02. Мясокомбинат
03. Когда мы нажрёмся
04. Память
05. Многолик 37-й
06. Нам с тобою хорошо!
07. Красный боров
08. Он и мы
09. Мясорубка
10. Или-или

Источник оцифровки: автором раздачи
Устройство воспроизведения: Pioneer ST-S330
АЦП: Tascam US-1800
Программа-оцифровщик: Cubase 7
Обработка: Izotope RX3, Adobe Audition CS6
REM MC-rip by castorkas 09.01.15 for retracker.in.ua
REM GENRE Siberian Punk
REM DATE 1988
PERFORMER "П.О.Г.О."
TITLE "Пограничный Отряд Гражданской Обороны"
FILE "П.О.Г.О'1988.flac" WAVE
TRACK 01 AUDIO
TITLE "Приятное соседство"
PERFORMER "П.О.Г.О."
INDEX 01 00:00:00
TRACK 02 AUDIO
TITLE "Мясокомбинат"
PERFORMER "П.О.Г.О."
INDEX 01 03:39:20
TRACK 03 AUDIO
TITLE "Когда мы нажрёмся"
PERFORMER "П.О.Г.О."
INDEX 01 05:51:40
TRACK 04 AUDIO
TITLE "Память"
PERFORMER "П.О.Г.О."
INDEX 01 09:51:50
TRACK 05 AUDIO
TITLE "Многолик 37-й"
PERFORMER "П.О.Г.О."
INDEX 01 12:40:20
TRACK 06 AUDIO
TITLE "Нам с тобою хорошо!"
PERFORMER "П.О.Г.О."
INDEX 01 15:34:00
TRACK 07 AUDIO
TITLE "Красный боров"
PERFORMER "П.О.Г.О."
INDEX 01 18:52:80
TRACK 08 AUDIO
TITLE "Он и мы"
PERFORMER "П.О.Г.О."
INDEX 01 20:19:20
TRACK 09 AUDIO
TITLE "Мясорубка"
PERFORMER "П.О.Г.О."
INDEX 01 22:45:30
TRACK 10 AUDIO
TITLE "Или-или"
PERFORMER "П.О.Г.О."
INDEX 01 26:15:50
 
Не забывайте говорить Спасибо. Не уходите с раздачи!   
Торрент: Зарегистрирован [10 янв 2015, 01:34] Скачать торрент
Скачать торрент
[ Размер 16.53 КБ / Просмотров 12 ]
Статус:
Проверен
 
.torrent скачан: 1 раз
Хэш: 75c1829ba952c30a43b56c5939eaf656746fe871
Размер: 402.92 МБ (422 494 289 байт)
Стать Автором раздачи
 
 
Раздал: 2.54 ГБ
Скачал: 0 байт
Ратио: Seed.
Сообщения: 236702
Зарегистрирован: 05 июл 2013, 10:11


  • Похожие торренты
    Ответы
    Просмотры
    Последнее сообщение

Вернуться в Отечественный рок (собственные оцифровки)

Ресурс не предоставляет электронные версии произведений, а занимается лишь коллекционированием и каталогизацией ссылок, присылаемых и публикуемых на форуме нашими читателями. Если вы являетесь правообладателем какого-либо представленного материала и не желаете чтобы ссылка на него находилась в нашем каталоге, свяжитесь с нами и мы незамедлительно удалим её. Файлы для обмена на трекере предоставлены пользователями сайта, и администрация не несёт ответственности за их содержание. Просьба не заливать файлы, защищенные авторскими правами, а также файлы нелегального содержания!
cron