Animal Planet. Неизведанная Мексика / Wild Mexico (2014) HDTVRip [H.264/720p]

 
 Статистика раздачи 
Размер: 1.58 ГБ   |  Зарегистрирован: 08 янв 2015, 22:09   |   .torrent скачан: 2 раз
Сидеров: 1  [ 0 байт/сек ]     Личеров: 0  [ 0 байт/сек ]  
  

Animal Planet. Неизведанная Мексика / Wild Mexico (2014) HDTVRip [H.264/720p]

Сообщение Thistoll » 08 янв 2015, 22:09

Animal Planet. Неизведанная Мексика / Wild Mexico (2014) HDTVRip [H.264/720p]

Режиссер / Телекомпания: Тод Вэйзер / Sky Vision for Animal Planet
Страна: США
Год выпуска: 2014
Жанр: Документальный, природа, фауна

Перевод: Одноголосый закадровый (профессиональный, студия "АРК·ТВ")
Cубтитры: нет

Продолжительность: 00:52:06

Описание: Мексика — великая и древняя страна, таинственная и многообразная. Здесь, на суше и на море, живут удивительные создания, которых не встретить больше нигде на земле. В Мексике, на её древней земле, природа по-прежнему процветает и не перестаёт удивлять. От причудливого и величественного до забавного и внушающего трепет, а также необъяснимого. Здешние животные также волшебны как те мифы и легенды, которые окружают эту неизведанную страну.

Качество видео: HDTVRip [720p]
Видеокодек: MPEG-4 AVC/H.264
Формат видео: MKV
Видео: 1280x720, 29.97 fps, 4663 kbps
Аудио: AC3, 6 ch, 384 Кбит/c [русский]
Общее
Уникальный идентификатор : 233169872958963730052042168335864490406 (0xAF6AE250D7C3430582447D806F88E9A6)
Полное имя : D:\Релизы\AP_Wild Mexico_720p.mkv
Формат : Matroska
Версия формата : Version 4 / Version 2
Размер файла : 1,58 Гбайт
Продолжительность : 43 м.
Режим общего битрейта : Постоянный
Общий поток : 5149 Кбит/сек
Дата кодирования : UTC 2015-01-07 21:10:38
Программа кодирования : mkvmerge v7.5.0 ('Glass Culture') 64bit built on Jan 4 2015 16:48:44
Библиотека кодирования : libebml v1.3.1 + libmatroska v1.4.2
DURATION : 00:43:49.000000000
NUMBER_OF_FRAMES : 65725
NUMBER_OF_BYTES : 1565421779
_STATISTICS_WRITING_APP : mkvmerge v7.5.0 ('Glass Culture') 64bit built on Jan 4 2015 16:48:44
_STATISTICS_WRITING_DATE_UTC : 2015-01-07 21:10:38
_STATISTICS_TAGS : BPS DURATION NUMBER_OF_FRAMES NUMBER_OF_BYTES

Видео
Идентификатор : 1
Формат : AVC
Формат/Информация : Advanced Video Codec
Профиль формата :
Параметр CABAC формата : Да
Параметр ReFrames формата : 3 кадра
Идентификатор кодека : V_MPEG4/ISO/AVC
Продолжительность : 43 м.
Вид битрейта : Постоянный
Битрейт : 4663 Кбит/сек
Номинальный битрейт : 5000 Кбит/сек / 5000 Кбит/сек
Ширина : 1280 пикселей
Высота : 720 пикселей
Соотношение сторон : 16:9
Режим частоты кадров : Постоянный
Частота кадров : 25,000 кадров/сек
Стандарт вещания : NTSC
Цветовое пространство : YUV
Субдискретизация насыщенности : 4:2:0
Битовая глубина : 8 бит
Тип развёртки : Прогрессивная
Бит/(Пиксели*Кадры) : 0.202
Размер потока : 1,43 Гбайт (91%)
Библиотека кодирования : x264 core 114
Настройки программы : cabac=1 / ref=3 / deblock=1:0:0 / analyse=0x3:0x113 / me=hex / subme=7 / psy=1 / psy_rd=1.00:0.00 / mixed_ref=1 / me_range=16 / chroma_me=1 / trellis=1 / 8x8dct=1 / cqm=2 / deadzone=21,11 / fast_pskip=1 / chroma_qp_offset=-2 / threads=6 / sliced_threads=0 / slices=1 / nr=0 / decimate=1 / interlaced=0 / constrained_intra=0 / bframes=3 / b_pyramid=0 / b_adapt=1 / b_bias=0 / direct=1 / weightb=1 / open_gop=0 / weightp=2 / keyint=250 / keyint_min=25 / scenecut=40 / intra_refresh=0 / rc_lookahead=40 / rc=cbr / mbtree=1 / bitrate=5000 / ratetol=1.0 / qcomp=0.60 / qpmin=3 / qpmax=69 / qpstep=4 / vbv_maxrate=5000 / vbv_bufsize=4997 / nal_hrd=cbr / ip_ratio=1.40 / aq=1:1.00
Default : Да
Forced : Нет
Основные цвета : BT.709
Характеристики трансфера : BT.709
Коэффициенты матрицы : BT.709

Аудио
Идентификатор : 2
Формат : AC-3
Формат/Информация : Audio Coding 3
Расширение режима : CM (complete main)
Параметр Endianness формата : Big
Идентификатор кодека : A_AC3
Продолжительность : 43 м.
Вид битрейта : Постоянный
Битрейт : 384 Кбит/сек
Каналы : 6 каналов
Расположение каналов : Front: L C R, Side: L R, LFE
Частота : 48,0 КГц
Битовая глубина : 16 бит
Метод сжатия : С потерями
Размер потока : 120 Мбайт (7%)
Default : Да
Forced : Нет
Скриншоты
:


Пожалуйста, не уходите с раздачи - помогите докачать другим. Если понравился релиз - жмите кнопку "Спасибо"!


Время раздачи: 24 / 7

"Неизведанная Мексика / Wild Mexico" на NoNaMe Club
Релиз: skorpionN (R.G.BitTracker)
 
Не забывайте говорить Спасибо. Не уходите с раздачи!   
Торрент: Зарегистрирован [08 янв 2015, 22:09] Для скачивания .torrent
необходима регистрация
Или скачать с помощью
MediaGet
Статус:
Проверен
 
.torrent скачан: 2 раз
Хэш: 9a070009420c4606da03c6727e31f50d5e280d9d
Размер: 1.58 ГБ (1 692 234 587 байт)
Стать Автором раздачи
 
 
Раздал: 6.67 ГБ
Скачал: 302.5 МБ
Ратио: 22.576
Сообщения: 374198
Зарегистрирован: 17 апр 2014, 11:05


  • Похожие торренты
    Ответы
    Просмотры
    Последнее сообщение

Вернуться в Animal Planet

Ресурс не предоставляет электронные версии произведений, а занимается лишь коллекционированием и каталогизацией ссылок, присылаемых и публикуемых на форуме нашими читателями. Если вы являетесь правообладателем какого-либо представленного материала и не желаете чтобы ссылка на него находилась в нашем каталоге, свяжитесь с нами и мы незамедлительно удалим её. Файлы для обмена на трекере предоставлены пользователями сайта, и администрация не несёт ответственности за их содержание. Просьба не заливать файлы, защищенные авторскими правами, а также файлы нелегального содержания!
cron