Кэнди (Candy) (2006) [MP4 | 1024x552] <BDRip H.264>

 
 Статистика раздачи 
Размер: 2.35 ГБ   |  Зарегистрирован: 08 янв 2015, 16:47   |   .torrent скачан: 0 раз
Сидеров: 1  [ 0 байт/сек ]     Личеров: 0  [ 0 байт/сек ]  
  

Кэнди (Candy) (2006) [MP4 | 1024x552] <BDRip H.264>

Сообщение Thistoll » 08 янв 2015, 16:47

Кэнди (Candy) (2006) BDRip

«Любовь - это высота, с которой вы никогда не захотите спуститься»

Год выпуска: 2006
Страна: Австралия
Жанр: Драма, Мелодрама

Описание фильма:
Кэнди, красивая юная художница, влюбляется в Дэна, поэта от случая к случаю. Их любовь опьяняет: они стремятся к бесконечному наслаждению. Раздвинуть границы возможного им помогает героин. Когда они вместе, они не боятся будущего. Но вскоре у любовников кончаются деньги на наркотики. Кэнди идёт на панель. Дэн ей не мешает, и незаметно для себя они покидают пределы своего Рая. Зависимость от героина становится всё сильнее, и в это время Кэнди и Дэн решают скрепить себя узами брака. Свадьба пролетает в наркотическом дурмане. Родители Кэнди в ужасе. На их глазах дочь летит в пропасть, навстречу чему-то, чего они страшно боятся, но не могут понять. Проходят дни и ночи. Для Кэнди и Дэна любовь неразрывно связана с наркотиками…

Режиссер: Нил Армфильд
Актеры: Эбби Корниш, Хит Леджер, Джеффри Раш, Том Бадж, Роберто Меца-Монт, Тони Мартин, Нони Хазлхерст, Холли Остин, Крэйг Морахэн, Джон Ли
Rest In Peace Хит Леджер.
Продолжительность: 01:46:45
Перевод: Двухголосый закадровый [R5]


Дата мировой премьеры: 15 февраля 2006
Дата российской премьеры: 1 июня 2006
Дата выхода DVD релиза: 6 июля 2006
Формат: MP4 (ISO v.2)
Качество видео: BDRip 576p
Видеокодек: MPEG-4 AVC/H.264
Битрейт видео: ~2928 kb/s
Размер кадра: 1024x552
Аудиокодек: AAC
Битрейт аудио: 192 kb/s 2.0 CBR LC
Код:
Код: Выделить всё
General
Complete name               : D:\Фильмы\Кэнди.2006.BDRip.576p.NNM-Club.mp4
Format                      : MPEG-4
Format profile              : Base Media / Version 2
Codec ID                    : mp42
File size                   : 2.35 GiB
Duration                    : 1h 47mn
Overall bit rate            : 3 124 Kbps
Encoded date                : UTC 2015-01-07 06:31:46
Tagged date                 : UTC 2015-01-07 06:31:46
Writing library             : AVS

Video
ID                          : 1
Format                      : AVC
Format/Info                 : Advanced Video Codec
Format profile              :
Format settings, CABAC      : Yes
Format settings, ReFrames   : 5 frames
Codec ID                    : avc1
Codec ID/Info               : Advanced Video Coding
Duration                    : 1h 47mn
Bit rate                    : 2 928 Kbps
Width                       : 1 024 pixels
Height                      : 552 pixels
Display aspect ratio        : 1.85:1
Frame rate mode             : Constant
Frame rate                  : 24.000 fps
Color space                 : YUV
Chroma subsampling          : 4:2:0
Bit depth                   : 8 bits
Scan type                   : Progressive
Bits/(Pixel*Frame)          : 0.216
Stream size                 : 2.20 GiB (94%)
Language                    : English
Encoded date                : UTC 2015-01-07 06:31:46
Tagged date                 : UTC 2015-01-07 06:31:46
Color primaries             : BT.709
Transfer characteristics    : BT.709
Matrix coefficients         : BT.709

Audio
ID                          : 2
Format                      : AAC
Format/Info                 : Advanced Audio Codec
Format profile              : LC
Codec ID                    : 40
Duration                    : 1h 47mn
Bit rate mode               : Constant
Bit rate                    : 192 Kbps
Channel(s)                  : 2 channels
Channel positions           : Front: L R
Sampling rate               : 44.1 KHz
Compression mode            : Lossy
Stream size                 : 146 MiB (6%)
Language                    : English
Encoded date                : UTC 2015-01-07 06:31:46
Tagged date                 : UTC 2015-01-07 06:31:46
• Автор книги «Героин», которая легла в основу фильма, присутствовал на съемках и активно в них участвовал. Люк Дэвис играет в небольшом эпизоде роль грузчика, бесплатно дающего молоко Дэну и Кэнди во время их возвращения после больницы.


Время раздачи: Круглосуточно, до первых 10-и скачавших
Приятного просмотра!
 
Не забывайте говорить Спасибо. Не уходите с раздачи!   
Торрент: Зарегистрирован [08 янв 2015, 16:47] Для скачивания .torrent
необходима регистрация
Или скачать с помощью
MediaGet
Статус:
Проверен
 
.torrent скачан: 0 раз
Хэш: b9a2a479e5a3490ac0d69991957160e8cf7647da
Размер: 2.35 ГБ (2 524 672 885 байт)
Стать Автором раздачи
 
 
Раздал: 6.67 ГБ
Скачал: 302.5 МБ
Ратио: 22.576
Сообщения: 374198
Зарегистрирован: 17 апр 2014, 11:05


  • Похожие торренты
    Ответы
    Просмотры
    Последнее сообщение

Вернуться в Видео для мобильных устройств

Ресурс не предоставляет электронные версии произведений, а занимается лишь коллекционированием и каталогизацией ссылок, присылаемых и публикуемых на форуме нашими читателями. Если вы являетесь правообладателем какого-либо представленного материала и не желаете чтобы ссылка на него находилась в нашем каталоге, свяжитесь с нами и мы незамедлительно удалим её. Файлы для обмена на трекере предоставлены пользователями сайта, и администрация не несёт ответственности за их содержание. Просьба не заливать файлы, защищенные авторскими правами, а также файлы нелегального содержания!
cron