Чудеса голубой планеты. Семь континентов (7 серий из 7)/ Magia Wielkiego Blekitu. Siedem kontynentow (2011) BDRip [H.264/1080p]

 
 Статистика раздачи 
Размер: 28.72 ГБ   |  Зарегистрирован: 07 янв 2015, 12:27   |   .torrent скачан: 0 раз
Сидеров: 1  [ 0 байт/сек ]     Личеров: 0  [ 0 байт/сек ]  
  

Чудеса голубой планеты. Семь континентов (7 серий из 7)/ Magia Wielkiego Blekitu. Siedem kontynentow (2011) BDRip [H.264/1080p]

Сообщение Thistoll » 07 янв 2015, 12:27

Чудеса голубой планеты. Семь континентов / Magia Wielkiego Blekitu. Siedem kontynentow (2011) BDRip [H.264/1080p]

Режиссер / Телекомпания: Дариуш Сепиоло / Best Film CO (Польша)
Жанр: Документальный
Описание: Совершите вместе с нами удивительное путешествие по самым красивым и удивительным уголкам нашей голубой планеты и насладитесь её чудесами и природными феноменами.

Продолжительность: 7 x ~00:45:00
Качество видео: BDRip

Перевод: Одноголосый закадровый, профессиональный
Язык субтитров: Русский
Вид субтитров: Вшитые

Видеокодек: MPEG-4 AVC/H.264

Битрейт видео: ~12.5 Mbit
Размер кадра: 1920x1080

Аудиокодек: AC3 5.1
Аудио #1: Русский, 448 kb/s CBR
Аудио #2: Польский, 448 kb/s CBR
1. Африка: В июне и в июле на восточном побережье Южной Африки можно наблюдать удивительные явления подоводного царства. Оператор Дарек Сепиола исследует природные феномены.
2. Австралия и Океания: Мы попадаем в неизведанный подводный мир. Море Бисмарка осталось в стороне от цивилизации - жизнь здесь существует лишь на крохотных островах.
3. Южная Америка: Восторг после посещения большого голубого и разноцветных рифов уляжется, и нам потребуется новая доза адреналина. Лучший способ ее получить - встретиться лицом к лицу с акулой.
4. Европа: Мы отправляемся в Европу на поиски ласковых великанов. Ежегодно Азорские острова посещают стаи китов, привлекая сюда множество туристов.
5. Азия: Филиппины, Индонезия и Малайзия лежат в центре кораллового треугольника. Здесь встречаются самые разнообразные обитатели подводного мира. Отсюда и начинается наше путешествие.
6. Северная Америка: Дарек отправляется на полуостров Юкатан (Мексика). Он продолжает изучать чудеса Голубой планеты. Именно на Юкатане находится одно из крупнейших скоплений подводных пещер.
7. Антарктика: Как чудесно нырять возле громадных айсбергов! Температура воды - -2 градуса по Цельсию, и немногие отваживаются в нее нырять. Зато взору смельчаков открываются потрясающие виды.
Код:
Код: Выделить всё
Полное имя                               : 1. Азия.mkv
Формат                                   : Matroska
Версия формата                           : Version 4 / Version 2
Размер файла                             : 4,40 Гбайт
Продолжительность                        : 47 м.
Общий поток                              : 13,4 Мбит/сек
Название фильма                          : The Magic Of The Big Blue Seven Continents (NNM-Club.me)
Дата кодирования                         : UTC 2015-01-06 17:11:18
Программа кодирования                    : mkvmerge v7.5.0 ('Glass Culture') 64bit built on Jan  4 2015 16:48:44
Библиотека кодирования                   : libebml v1.3.1 + libmatroska v1.4.2
_STATISTICS_WRITING_APP                  : mkvmerge v7.5.0 ('Glass Culture') 64bit built on Jan  4 2015 16:48:44
_STATISTICS_WRITING_DATE_UTC             : 2015-01-06 17:11:18
_STATISTICS_TAGS                         : BPS DURATION NUMBER_OF_FRAMES NUMBER_OF_BYTES
DURATION                                 : 00:46:05.207000000
NUMBER_OF_FRAMES                         : 431
NUMBER_OF_BYTES                          : 35555

Видео
Идентификатор                            : 1
Формат                                   : AVC
Формат/Информация                        : Advanced Video Codec
Профиль формата                          :
Параметр CABAC формата                   : Да
Параметр ReFrames формата                : 4 кадра
Идентификатор кодека                     : V_MPEG4/ISO/AVC
Продолжительность                        : 47 м.
Битрейт                                  : 12,5 Мбит/сек
Ширина                                   : 1920 пикселей
Высота                                   : 1080 пикселей
Соотношение сторон                       : 16:9
Режим частоты кадров                     : Постоянный
Частота кадров                           : 25,000 кадров/сек
Цветовое пространство                    : YUV
Субдискретизация насыщенности            : 4:2:0
Битовая глубина                          : 8 бит
Тип развёртки                            : Прогрессивная
Бит/(Пиксели*Кадры)                      : 0.241
Размер потока                            : 4,02 Гбайт (91%)
Заголовок                                : The Magic Of The Big Blue. Seven Continents (NNM-Club.me)
Библиотека кодирования                   : x264 core 130 r2273 b3065e6
Настройки программы                      : cabac=1 / ref=4 / deblock=1:-3:-3 / analyse=0x3:0x133 / me=tesa / subme=11 / psy=1 / psy_rd=1.00:0.10 / mixed_ref=1 / me_range=32 / chroma_me=1 / trellis=2 / 8x8dct=1 / cqm=0 / deadzone=21,11 / fast_pskip=0 / chroma_qp_offset=-3 / threads=6 / lookahead_threads=1 / sliced_threads=0 / nr=0 / decimate=0 / interlaced=0 / bluray_compat=0 / constrained_intra=0 / bframes=3 / b_pyramid=2 / b_adapt=2 / b_bias=0 / direct=3 / weightb=1 / open_gop=0 / weightp=2 / keyint=250 / keyint_min=25 / scenecut=40 / intra_refresh=0 / rc_lookahead=50 / rc=2pass / mbtree=1 / bitrate=12500 / ratetol=1.0 / qcomp=0.60 / qpmin=0 / qpmax=69 / qpstep=4 / cplxblur=20.0 / qblur=0.5 / ip_ratio=1.40 / aq=1:1.00
Язык                                     : English
Default                                  : Да
Forced                                   : Нет
_STATISTICS_WRITING_APP                  : mkvmerge v7.5.0 ('Glass Culture') 64bit built on Jan  4 2015 16:48:44
_STATISTICS_WRITING_DATE_UTC             : 2015-01-06 17:11:18
_STATISTICS_TAGS                         : BPS DURATION NUMBER_OF_FRAMES NUMBER_OF_BYTES
DURATION                                 : 00:47:04.000000000
NUMBER_OF_FRAMES                         : 70600
NUMBER_OF_BYTES                          : 4410189339

Аудио #1
Идентификатор                            : 2
Формат                                   : AC-3
Формат/Информация                        : Audio Coding 3
Расширение режима                        : CM (complete main)
Параметр Endianness формата              : Big
Идентификатор кодека                     : A_AC3
Продолжительность                        : 47 м.
Вид битрейта                             : Постоянный
Битрейт                                  : 448 Кбит/сек
Каналы                                   : 6 каналов
Расположение каналов                     : Front: L C R, Side: L R, LFE
Частота                                  : 48,0 КГц
Битовая глубина                          : 16 бит
Метод сжатия                             : С потерями
Размер потока                            : 151 Мбайт (3%)
Язык                                     : Russian
Default                                  : Да
Forced                                   : Нет

Аудио #2
Идентификатор                            : 3
Формат                                   : AC-3
Формат/Информация                        : Audio Coding 3
Расширение режима                        : CM (complete main)
Параметр Endianness формата              : Big
Идентификатор кодека                     : A_AC3
Продолжительность                        : 47 м.
Вид битрейта                             : Постоянный
Битрейт                                  : 448 Кбит/сек
Каналы                                   : 6 каналов
Расположение каналов                     : Front: L C R, Side: L R, LFE
Частота                                  : 48,0 КГц
Битовая глубина                          : 16 бит
Метод сжатия                             : С потерями
Размер потока                            : 151 Мбайт (3%)
Язык                                     : Polish
Default                                  : Нет
Forced                                   : Нет

Текст
Идентификатор                            : 4
Формат                                   : UTF-8
Идентификатор кодека                     : S_TEXT/UTF8
Идентификатор кодека/Информация          : UTF-8 Plain Text
Язык                                     : Russian
Default                                  : Нет
Forced                                   : Нет
Чудеса голубой планеты. Семь континентов на NoNaMe Club

Скриншоты:




Время раздачи: 24/7 (круглосуточно) до 10 загрузок
 
Не забывайте говорить Спасибо. Не уходите с раздачи!   
Торрент: Зарегистрирован [07 янв 2015, 12:27] Для скачивания .torrent
необходима регистрация
Или скачать с помощью
MediaGet
Статус:
Проверен
 
.torrent скачан: 0 раз
Хэш: 919c255c1867cace87fca4c797ede13232523252
Размер: 28.72 ГБ (30 838 319 459 байт)
Стать Автором раздачи
 
 
Раздал: 6.67 ГБ
Скачал: 302.5 МБ
Ратио: 22.576
Сообщения: 374284
Зарегистрирован: 17 апр 2014, 11:05


  • Похожие торренты
    Ответы
    Просмотры
    Последнее сообщение

Вернуться в Animal Planet

Кто сейчас на конференции

Сейчас эту тему просматривают: нет зарегистрированных пользователей и гости: 1

Ресурс не предоставляет электронные версии произведений, а занимается лишь коллекционированием и каталогизацией ссылок, присылаемых и публикуемых на форуме нашими читателями. Если вы являетесь правообладателем какого-либо представленного материала и не желаете чтобы ссылка на него находилась в нашем каталоге, свяжитесь с нами и мы незамедлительно удалим её. Файлы для обмена на трекере предоставлены пользователями сайта, и администрация не несёт ответственности за их содержание. Просьба не заливать файлы, защищенные авторскими правами, а также файлы нелегального содержания!