Перевозчик (Transporter: The Series) / (Сезон 2, серии 1-9 из 12) LostFilm (2014) [MP4|1280x720] <HDTVRip [H.264]>

 
 Статистика раздачи 
Размер: 12.84 ГБ   |  Зарегистрирован: 06 янв 2015, 18:04   |   .torrent скачан: 0 раз
Сидеров: 1  [ 0 байт/сек ]     Личеров: 1  [ 0 байт/сек ]  
  

Перевозчик (Transporter: The Series) / (Сезон 2, серии 1-9 из 12) LostFilm (2014) [MP4|1280x720] <HDTVRip [H.264]>

Сообщение Thistoll » 06 янв 2015, 18:04

Перевозчик (Transporter: The Series) / (Сезон 2, серии 1-9 из 12) LostFilm (2014) HDTVRip
«One man, Three rules, One goal...»

Год выпуска: 2014
Жанр: боевик, криминал
Страна: Канада, Франция, США, Германия

Описание фильма:
Перевозчик — экшн-телесериал по мотивам одноимённой серии фильмов Люка Бессона. В центре сюжета бывший сотрудник Сил специального назначения Фрэнк Мартин, ныне перевозчик разных грузов. Он не задает лишних вопросов и всегда соблюдает чёткие правила: "Никогда не изменяй условия сделки", "Никаких имён", "Никогда не открывать груз". Его точность вождения и боевые навыки позволяют ему выжить в самых опасных ситуациях на протяжении всей миссии.

Режиссер: Брэд Тернер, Эрик Валетт, Энди Микита
Актеры: Крис Вэнс, Андреа Ошварт, Дэльфина Шанеак, Чарли Хюбнер, Франсуа Берлеан, Жан-Поль Мано, Джулиан Ричингс, Джейк Майклс, Джош Блэкер, Ной Кэппи и др.

Продолжительность: ~ 00:51:00 серия
Качество видео: HDTVRip 720p

Перевод: Многоголосый закадровый, профессиональный - LostFilm
Озвучка / Автор перевода: Студия «LostFilm»

Сэмпл
Дата мировой премьеры: 5 октября 2014 (2 сезон)

Формат: MP4
Видеокодек: MPEG-4 AVC/H.264
Битрейт видео: ~4000 Кбит/сек
Размер кадра: 1280x720 (16:9)
Аудиокодек: AAC, 2 канала
Битрейт аудио: 247 Кбит/сек
Полное имя : D:\Transporter_The_Series_s2_HDTVRip720p_x264_LostFilm_[NNM-CLUB]\Transporter.S02E01.720p.WEB.rus.LostFilm.TV.mp4
Формат : MPEG-4
Профиль формата : Base Media
Идентификатор кодека : isom
Размер файла : 1,50 Гбайт
Продолжительность : 51 м.
Режим общего битрейта : Переменный
Общий поток : 4204 Кбит/сек
Коллекция : Перевозчик
Сезон : 2
Альбом : Перевозчик, Сезон 2
Альбом/Исполнитель : Перевозчик
Часть : 1
Часть/Положение : 2
Трек : Быть или не быть
Трек/Положение : 1
Исполнитель : Перевозчик
Жанр : 57 / Drama
Тип содержимого : TV Show
Дата записи : 2014
Дата кодирования : UTC 2014-12-17 14:13:53
Дата пометки : UTC 2014-12-17 14:13:53
Программа кодирования : Yamb 2.1.0.0 [http://yamb.unite-video.com] / LostCoder
Правообладатель : LostFilm.TV (c)
Обложка : Yes
Примечание : Фрэнк Мартин – профессиональный курьер, который способен доставить что угодно, куда угодно и кому угодно
Part_ID : 201

Видео
Идентификатор : 1
Формат : AVC
Формат/Информация : Advanced Video Codec
Профиль формата :
Параметр CABAC формата : Нет
Параметр ReFrames формата : 4 кадра
Идентификатор кодека : avc1
Идентификатор кодека/Информация : Advanced Video Coding
Продолжительность : 51 м.
Битрейт : 4000 Кбит/сек
Максимальный битрейт : 6181 Кбит/сек
Ширина : 1280 пикселей
Высота : 720 пикселей
Соотношение сторон : 16:9
Режим частоты кадров : Постоянный
Частота кадров : 23,976 кадра/сек
Цветовое пространство : YUV
Субдискретизация насыщенности : 4:2:0
Битовая глубина : 8 бит
Тип развёртки : Прогрессивная
Бит/(Пиксели*Кадры) : 0.181
Размер потока : 1,41 Гбайт (94%)
Заголовок : Imported with GPAC 0.4.6-DEV (internal rev. 5)
Библиотека кодирования : x264 core 112 r1834 a51816a
Настройки программы : cabac=0 / ref=3 / deblock=1:0:0 / analyse=0x3:0x113 / me=hex / subme=7 / psy=1 / psy_rd=1.00:0.00 / mixed_ref=1 / me_range=16 / chroma_me=1 / trellis=1 / 8x8dct=1 / cqm=0 / deadzone=21,11 / fast_pskip=1 / chroma_qp_offset=-2 / threads=6 / sliced_threads=0 / nr=0 / decimate=1 / interlaced=0 / constrained_intra=0 / bframes=3 / b_pyramid=2 / b_adapt=1 / b_bias=0 / direct=1 / weightb=1 / open_gop=0 / weightp=2 / keyint=250 / keyint_min=25 / scenecut=40 / intra_refresh=0 / rc_lookahead=40 / rc=abr / mbtree=1 / bitrate=4000 / ratetol=1.0 / qcomp=0.60 / qpmin=0 / qpmax=51 / qpstep=4 / vbv_maxrate=5000 / vbv_bufsize=2000 / ip_ratio=1.40 / aq=1:1.00 / nal_hrd=none
Дата кодирования : UTC 2014-12-17 14:11:22
Дата пометки : UTC 2014-12-17 14:14:20

Аудио
Идентификатор : 2
Формат : AAC
Формат/Информация : Advanced Audio Codec
Профиль формата : LC
Идентификатор кодека : 40
Продолжительность : 51 м.
Вид битрейта : Переменный
Битрейт : 247 Кбит/сек
Максимальный битрейт : 320 Кбит/сек
Каналы : 2 канала
Расположение каналов : Front: L R
Частота : 48,0 КГц
Метод сжатия : С потерями
Размер потока : 90,3 Мбайт (6%)
Дата кодирования : UTC 2014-12-17 14:14:17
Дата пометки : UTC 2014-12-17 14:14:20
01 - Быть или не быть / 2B or Not 2B
02 - Мы вернёмся / We Go Back
03 - Секс, ложь и видео / Sex, Lies and Videotape
04 - Взрывы / Boom
05 - Луч надежды / Beacon of Hope
06 - Дива / The Diva
07 - Перевозчик-2 / Т2
08 - Химера / Chimera
Внимание! Раздача ведётся путём добавления новых серий; при каждом добавлении создаётся новый торрент.
Чтобы начать докачку новой серии, пользователям необходимо сделать следующее:
1. Остановить скачивание;
2. Удалить старый торрент у себя из клиента (старые серии удалять не надо);
3. Скачать новый торрент и запустить его у себя в клиенте вместо старого, при этом указать клиенту путь в старую папку куда и должно происходить скачивание новых серий. Ваш клиент при этом должен произвести хеширование (проверку) старой папки и будет докачивать только те серии, которых у вас ещё нет. Старые серии при этом не удаляются, а продолжают раздаваться! Eсли вы уже удалили старые серии, то предотвратить повторную закачку старых серий можно, отжав галочку в соответствующих местах при запуске нового торрента.
Скриншоты:



Время раздачи:
24/7 - круглосуточно
(до первых 5-ти сидов - потом по возможности)
 
Не забывайте говорить Спасибо. Не уходите с раздачи!   
Торрент: Зарегистрирован [06 янв 2015, 18:04] Для скачивания .torrent
необходима регистрация
Или скачать с помощью
MediaGet
Статус:
Проверен
 
.torrent скачан: 0 раз
Хэш: 880639f9d07fb805128e91daa410c12a00216658
Размер: 12.84 ГБ (13 784 789 297 байт)
Стать Автором раздачи
 
 
Раздал: 6.67 ГБ
Скачал: 302.5 МБ
Ратио: 22.576
Сообщения: 374198
Зарегистрирован: 17 апр 2014, 11:05


  • Похожие торренты
    Ответы
    Просмотры
    Последнее сообщение

Вернуться в Видео для мобильных устройств

Ресурс не предоставляет электронные версии произведений, а занимается лишь коллекционированием и каталогизацией ссылок, присылаемых и публикуемых на форуме нашими читателями. Если вы являетесь правообладателем какого-либо представленного материала и не желаете чтобы ссылка на него находилась в нашем каталоге, свяжитесь с нами и мы незамедлительно удалим её. Файлы для обмена на трекере предоставлены пользователями сайта, и администрация не несёт ответственности за их содержание. Просьба не заливать файлы, защищенные авторскими правами, а также файлы нелегального содержания!
cron