Animal Planet. Гангстеры дикой природы / Gangland Killers (2014) HDTVRip [H.264/720p] (1-6 серия из 6)

 
 Статистика раздачи 
Размер: 9.71 ГБ   |  Зарегистрирован: 05 янв 2015, 06:08   |   .torrent скачан: 3 раз
Сидеров: 1  [ 0 байт/сек ]     Личеров: 0  [ 0 байт/сек ]  
  

Animal Planet. Гангстеры дикой природы / Gangland Killers (2014) HDTVRip [H.264/720p] (1-6 серия из 6)

Сообщение Thistoll » 05 янв 2015, 06:08

Animal Planet. Гангстеры дикой природы / Gangland Killers (2014) HDTVRip [H.264/720p] (1-6 серия из 6)

Режиссер / Телекомпания: Питер Ламберти / AquaVision TV Productions
Страна: ЮАР
Год выпуска: 2014
Жанр: Документальный, природа, фауна

Перевод: Одноголосый закадровый (профессиональный)
Cубтитры: нет

Продолжительность: 6 x 00:44:00

Описание: Для многих животных, живущих на бескрайних просторах Африки, существует тонкая грань между жизнью и смертью. Множество хищников, засушливый сезон, недостаток воды и пищи делают жизнь обитателей саванны невыносимо трудной и смертельно опасной. Секрет выживания и процветания отдельных видов кроется в объединённых группах и коллективной охоте, будь то целеустремлённое стадо, сплочённая стая или безжалостная банда.

Качество видео: HDTVRip
Видеокодек: MPEG-4 AVC/H.264
Формат видео: MKV
Видео: 1280x720, 25.00 fps, 4 500 kbps
Аудио:
1. [русский] AC3, 6 ch, 384 Кбит/с
2. [английский] AC3, 6 ch, 384 Кбит/с
01 Бегемоты / Hippo Gangs
Идёт война. Война самцов с битвами за территорию, власть и самок. Но главное в сезон засухи в долине реки Луангва - это борьба за выживание. И здесь природа - их главный противник. Одни выживут, другим не повезет... И так будет всегда в любом стаде бегемотов.

02 Слоны / Elephant Gangs
Слоны - крупнейшие наземные млекопитающие планеты. Они величественны, ласковы, преданны семье. Их уважают все... кроме львов и природы. Им не хватает воды и пищи. Поэтому группе слонов приходится мигрировать. Но они не могут оставить своих любимых. Будет ли их преданность стоить им жизни?...

03 Мангусты / Mongoose Gangs
Это семейство мангустов в панике. Вода в дельте реки Окаванго прибывает и уже почти достигла их дома. Пришло время уходить. Предстоящий путь - это череда непрекращающихся испытаний. Прежде чем добраться до цели, они будут рисковать своим здоровьем и жизнью. Часто смекалка важнее размеров. И эта группа полосатых зверьков не остановится ни перед чем на пути к своему новому дому.

04 Дикие собаки / Wild Dog Gangs
Их не просто так зовут дикими собаками. Они беспощадны, безжалостны, жестоки. Но также, они любящие и заботливые. Они заботятся о раненых, молодых и старых особях. Но прежде всего - они одна команда. Стая. Банда. Дикие собаки держатся вместе, поскольку окружены самыми опасными хищниками Африки. Выживут ли они? Убьют ли они для пищи или же будут убиты сами?...

05 Буйволы / Buffalo Gangs
Эти буйволы хотят чтобы их оставили в покое. Они мечтают о безопасных пастбищах, грезят о радостях новой жизни и о мире. Но мира нет! Буйволов преследуют и безжалостно убивают. Эти убийства чудовищны. Пришло время положить этому конец и отомстить. У разъярённых буйволов лучше не вставать на пути...

06 Гиены / Hyena Gangs
Гиены - самые проворные падальщики. Большая стая за 15 минут может съесть антилопу гну полностью: с кожей, мясом, костями и копытами. Оставлять что-то после себя не в правилах гиен. Они созданы для того чтобы выживать и процветать. Наверно поэтому стаей управляют только самки. Ранг в стае определяется жёстко, но так и должно быть. Самое главное, сохранить линию альфа-самки, так как всё будущее стаи зависит от неё.
Скриншоты
:
Общее
Уникальный идентификатор : 219967644319014561166612871681464874011 (0xA57C3A3044F0FB9A93831A4A6014341B)
Полное имя : D:\Релизы\Gangland.Killers.HDTVRip.720p\Gangland Killers E01 Hippo Gangs (720p).mkv
Формат : Matroska
Версия формата : Version 4 / Version 2
Размер файла : 1,63 Гбайт
Продолжительность : 44 м.
Общий поток : 5269 Кбит/сек
Название фильма : Gangland Killers E01 Hippo Gangs
Дата кодирования : UTC 2014-12-23 20:15:20
Программа кодирования : mkvmerge v7.0.0 ('Where We Going') 64bit built on Jun 9 2014 15:16:27
Библиотека кодирования : libebml v1.3.0 + libmatroska v1.4.1

Видео
Идентификатор : 1
Формат : AVC
Формат/Информация : Advanced Video Codec
Профиль формата :
Параметр CABAC формата : Да
Параметр ReFrames формата : 8 кадров
Идентификатор кодека : V_MPEG4/ISO/AVC
Продолжительность : 44 м.
Битрейт : 4500 Кбит/сек
Ширина : 1280 пикселей
Высота : 720 пикселей
Соотношение сторон : 16:9
Режим частоты кадров : Постоянный
Частота кадров : 25,000 кадров/сек
Цветовое пространство : YUV
Субдискретизация насыщенности : 4:2:0
Битовая глубина : 8 бит
Тип развёртки : Прогрессивная
Бит/(Пиксели*Кадры) : 0.195
Размер потока : 1,36 Гбайт (83%)
Библиотека кодирования : x264 core 142 r2479kMod dd79a61
Настройки программы : cabac=1 / ref=8 / deblock=1:-1:-1 / analyse=0x3:0x133 / me=umh / subme=9 / psy=1 / fade_compensate=0.00 / psy_rd=1.00:0.10 / mixed_ref=1 / me_range=24 / chroma_me=1 / trellis=2 / 8x8dct=1 / cqm=0 / deadzone=21,11 / fast_pskip=1 / chroma_qp_offset=-3 / threads=6 / lookahead_threads=1 / sliced_threads=0 / nr=0 / decimate=1 / interlaced=0 / bluray_compat=0 / constrained_intra=0 / fgo=0 / bframes=8 / b_pyramid=2 / b_adapt=2 / b_bias=0 / direct=3 / weightb=1 / open_gop=0 / weightp=2 / keyint=250 / keyint_min=25 / scenecut=40 / intra_refresh=0 / rc_lookahead=60 / rc=2pass / mbtree=1 / bitrate=4500 / ratetol=1.0 / qcomp=0.60 / qpmin=0 / qpmax=69 / qpstep=4 / cplxblur=20.0 / qblur=0.5 / ip_ratio=1.40 / aq=1:1.00
Default : Да
Forced : Нет

Аудио #1
Идентификатор : 2
Формат : AC-3
Формат/Информация : Audio Coding 3
Расширение режима : CM (complete main)
Параметр Endianness формата : Big
Идентификатор кодека : A_AC3
Продолжительность : 44 м.
Вид битрейта : Постоянный
Битрейт : 384 Кбит/сек
Каналы : 6 каналов
Расположение каналов : Front: L C R, Side: L R, LFE
Частота : 48,0 КГц
Битовая глубина : 16 бит
Метод сжатия : С потерями
Размер потока : 121 Мбайт (7%)
Заголовок : Russian
Язык : Russian
Default : Да
Forced : Нет

Аудио #2
Идентификатор : 3
Формат : AC-3
Формат/Информация : Audio Coding 3
Расширение режима : CM (complete main)
Параметр Endianness формата : Big
Идентификатор кодека : A_AC3
Продолжительность : 44 м.
Вид битрейта : Постоянный
Битрейт : 384 Кбит/сек
Каналы : 6 каналов
Расположение каналов : Front: L C R, Side: L R, LFE
Частота : 48,0 КГц
Битовая глубина : 16 бит
Метод сжатия : С потерями
Размер потока : 121 Мбайт (7%)
Заголовок : English
Язык : English
Default : Нет
Forced : Нет
Пожалуйста, не уходите с раздачи - помогите докачать другим. Если понравился релиз - жмите кнопку "Спасибо"!


Время раздачи: 24 / 7

"Гангстеры дикой природы / Gangland Killers" на NoNaMe Club
Релиз: san007
 
Не забывайте говорить Спасибо. Не уходите с раздачи!   
Торрент: Зарегистрирован [05 янв 2015, 06:08] Для скачивания .torrent
необходима регистрация
Или скачать с помощью
MediaGet
Статус:
Проверен
 
.torrent скачан: 3 раз
Хэш: 867b99f98d4ea1adb8e6fe0ceca13cc8945a2143
Размер: 9.71 ГБ (10 426 211 447 байт)
Стать Автором раздачи
 
 
Раздал: 6.67 ГБ
Скачал: 302.5 МБ
Ратио: 22.576
Сообщения: 374198
Зарегистрирован: 17 апр 2014, 11:05


  • Похожие торренты
    Ответы
    Просмотры
    Последнее сообщение

Вернуться в Animal Planet

Кто сейчас на конференции

Сейчас эту тему просматривают: нет зарегистрированных пользователей и гости: 1

Ресурс не предоставляет электронные версии произведений, а занимается лишь коллекционированием и каталогизацией ссылок, присылаемых и публикуемых на форуме нашими читателями. Если вы являетесь правообладателем какого-либо представленного материала и не желаете чтобы ссылка на него находилась в нашем каталоге, свяжитесь с нами и мы незамедлительно удалим её. Файлы для обмена на трекере предоставлены пользователями сайта, и администрация не несёт ответственности за их содержание. Просьба не заливать файлы, защищенные авторскими правами, а также файлы нелегального содержания!