VA - The 15 Sexiest Videos Of 2013 by VH1 (2013) WEB-DLRip (1080p)

 
 Статистика раздачи 
Размер: 1.33 ГБ   |  Зарегистрирован: 02 янв 2015, 12:23   |   .torrent скачан: 0 раз
Сидеров: 1  [ 0 байт/сек ]     Личеров: 0  [ 0 байт/сек ]  
  

VA - The 15 Sexiest Videos Of 2013 by VH1 (2013) WEB-DLRip (1080p)

Сообщение Thistoll » 02 янв 2015, 12:23

VA - The 15 Sexiest Videos Of 2013 by VH1 (2013) WEB-DLRip (1080p)

Исполнитель: Various Artists
Название: The 15 Sexiest Videos Of 2013 by VH1
Год выхода: 2013
Жанр: Dance, Pop, Trance, House, Rap
Кол-во клипов: 15

Содержание:
The 15 Sexiest Music Videos Of 2013 by VH1 - подборка самых сексуальных клипов 2013 года по версии популярного американского музыкального канала - VH1. Первое место за американской R’n’B-дивой Бейонсе, остальное по списку.

Продолжительность: 15 x ~ 00:03:50
Качество видео: WEB-DLRip [1080p]

Формат: MPEG-4
Видеокодек: AVC (H.264)
Битрейт видео: ~4500kbps
Размер кадра: 1920x1080
Аудиокодек: AAC, 2 ch
Битрейт аудио: 192kbps

Треклист:
01. Beyonce - Partition
02. Robin Thicke (ft. T.I. and Pharrell Williams) - Blurred Lines
03. Rihanna - Pour It Up
04. Nicki Minaj (ft. Lil Wayne) - High School
05. Miley Cyrus - Wrecking Ball
06. Justin Timberlake - Tunnel Vision
07. Iggy Azalea (ft. T.I.) - Change Your Life
08. Kanye West - Bound 2
09. Britney Spears - Work Bitch
10. Pitbull (ft. Ke$ha) - Timber
11. Lady Gaga - Applause
12. Jason Derulo - The Other Side
13. Katy Perry - Roar
14. Mariah Carey (ft. Miguel) - #Beautiful
15. Ciara - Body Party
Общее
Полное имя : D:\The 15 Sexiest Music Videos Of 2013 by VH1\01. Beyonce - Partition.mp4
Формат : MPEG-4
Профиль формата : Base Media
Идентификатор кодека : isom
Размер файла : 68,7 Мбайт
Продолжительность : 3 м. 49 с.
Общий поток : 2512 Кбит/сек
Программа кодирования : Lavf55.33.100

Видео
Идентификатор : 1
Формат : AVC
Формат/Информация : Advanced Video Codec
Профиль формата :
Параметр CABAC формата : Да
Параметр ReFrames формата : 3 кадра
Идентификатор кодека : avc1
Идентификатор кодека/Информация : Advanced Video Coding
Продолжительность : 3 м. 49 с.
Битрейт : 2382 Кбит/сек
Ширина : 1920 пикселей
Высота : 1080 пикселей
Соотношение сторон : 16:9
Режим частоты кадров : Переменный
Частота кадров : 23,976 кадра/сек
Минимальная частота кадров : 23,974 кадра/сек
Максимальная частота кадров : 23,981 кадра/сек
Цветовое пространство : YUV
Субдискретизация насыщенности : 4:2:0
Битовая глубина : 8 бит
Тип развёртки : Прогрессивная
Бит/(Пиксели*Кадры) : 0.048
Размер потока : 65,1 Мбайт (95%)

Аудио
Идентификатор : 2
Формат : AAC
Формат/Информация : Advanced Audio Codec
Профиль формата : LC
Идентификатор кодека : 40
Продолжительность : 3 м. 49 с.
Вид битрейта : Постоянный
Битрейт : 126 Кбит/сек
Каналы : 2 канала
Расположение каналов : Front: L R
Частота : 44,1 КГц
Метод сжатия : С потерями
Размер потока : 3,44 Мбайт (5%)
Скриншоты:


Время раздачи: 24/7 до первых 5 скачавших.
 
Не забывайте говорить Спасибо. Не уходите с раздачи!   
Торрент: Зарегистрирован [02 янв 2015, 12:23] Скачать торрент
Скачать торрент
[ Размер 15.1 КБ / Просмотров 13 ]
Статус:
Проверен
 
.torrent скачан: 0 раз
Хэш: 093599d5db1f84c4758f361c357dc889e96b672a
Размер: 1.33 ГБ (1 431 321 001 байт)
Стать Автором раздачи
 
 
Раздал: 6.67 ГБ
Скачал: 302.5 МБ
Ратио: 22.576
Сообщения: 374198
Зарегистрирован: 17 апр 2014, 11:05


  • Похожие торренты
    Ответы
    Просмотры
    Последнее сообщение

Вернуться в Музыкальные клипы (транзит)

Ресурс не предоставляет электронные версии произведений, а занимается лишь коллекционированием и каталогизацией ссылок, присылаемых и публикуемых на форуме нашими читателями. Если вы являетесь правообладателем какого-либо представленного материала и не желаете чтобы ссылка на него находилась в нашем каталоге, свяжитесь с нами и мы незамедлительно удалим её. Файлы для обмена на трекере предоставлены пользователями сайта, и администрация не несёт ответственности за их содержание. Просьба не заливать файлы, защищенные авторскими правами, а также файлы нелегального содержания!
cron