VA - The 15 Sexiest Videos Of 2014 by VH1 (2014) WEB-DLRip (1080p)

 
 Статистика раздачи 
Размер: 1.3 ГБ   |  Зарегистрирован: 02 янв 2015, 12:23   |   .torrent скачан: 0 раз
Сидеров: 1  [ 0 байт/сек ]     Личеров: 0  [ 0 байт/сек ]  
  

VA - The 15 Sexiest Videos Of 2014 by VH1 (2014) WEB-DLRip (1080p)

Сообщение Thistoll » 02 янв 2015, 12:23

VA - The 15 Sexiest Videos Of 2014 by VH1 (2014) WEB-DLRip (1080p)

Исполнитель: Various Artists
Название: The 15 Sexiest Videos Of 2014 by VH1
Год выхода: 2014
Жанр: Dance, Pop, Trance, House, Rap
Кол-во клипов: 15

Содержание:
Популярный американский музыкальный телеканал VH1 выбрал самые сексуальные клипы года. Первое место заняла работа Дженнифер Лопес "Booty", в записи которой приняла участие популярная хип-хоп исполнительница Игги Азалия. Второе место также за девчачьим дуэтом – ролик Шакиры и Рианны "Can’t Remember to Forget You". Кроме того, в рейтинг вошла провокационная экранизация сингла Ники Минаж "Anaconda", а видео Леди Гаги "G.U.Y." стало шестым.

Продолжительность: 15 x ~ 00:04:20
Качество видео: WEB-DLRip [1080p]

Формат: MPEG-4
Видеокодек: AVC (H.264)
Битрейт видео: ~4000kbps
Размер кадра: 1920x1080
Аудиокодек: AAC, 2 ch
Битрейт аудио: 192kbps

Треклист:
01. Jennifer Lopez (ft. Iggy Azalea) - Booty
02. Shakira (ft. Rihanna) - Can't Remember To Forget You
03. Trey Songz - Na Na
04. Jennifer Lopez - First Love
05. Nicki Minaj - Anaconda
06. Lady Gaga - G.U.Y.
07. T.I. (ft. Iggy Azalea) - No Mediocre
08. Jennifer Lopez (ft. French Montana) - I Luh Ya PaPi
09. Jessie J, Ariana Grande, Nicki Minaj - Bang Bang
10. Calvin Harris - Summer
11. Jessie J (ft. 2 Chainz) - Burnin Up
12. Taylor Swift - Blank Space
13. Kid Ink (ft. Usher, Tinashe) - Body Language
14. Beyonce - 7/11
15. Ariana Grande (ft. The Weeknd) - Love Me Harder
Общее
Полное имя : D:\The 15 Sexiest Videos Of 2014 by VH1 1080р\01. Jennifer Lopez (ft. Iggy Azalea) - Booty.mp4
Формат : MPEG-4
Профиль формата : Base Media
Идентификатор кодека : isom
Размер файла : 90,6 Мбайт
Продолжительность : 4 м. 16 с.
Общий поток : 2960 Кбит/сек
Программа кодирования : Lavf55.33.100

Видео
Идентификатор : 1
Формат : AVC
Формат/Информация : Advanced Video Codec
Профиль формата :
Параметр CABAC формата : Да
Параметр ReFrames формата : 3 кадра
Идентификатор кодека : avc1
Идентификатор кодека/Информация : Advanced Video Coding
Продолжительность : 4 м. 16 с.
Битрейт : 2829 Кбит/сек
Ширина : 1920 пикселей
Высота : 1080 пикселей
Соотношение сторон : 16:9
Режим частоты кадров : Переменный
Частота кадров : 23,976 кадра/сек
Минимальная частота кадров : 23,974 кадра/сек
Максимальная частота кадров : 23,981 кадра/сек
Цветовое пространство : YUV
Субдискретизация насыщенности : 4:2:0
Битовая глубина : 8 бит
Тип развёртки : Прогрессивная
Бит/(Пиксели*Кадры) : 0.057
Размер потока : 86,6 Мбайт (96%)

Аудио
Идентификатор : 2
Формат : AAC
Формат/Информация : Advanced Audio Codec
Профиль формата : LC
Идентификатор кодека : 40
Продолжительность : 4 м. 16 с.
Вид битрейта : Постоянный
Битрейт : 126 Кбит/сек
Каналы : 2 канала
Расположение каналов : Front: L R
Частота : 44,1 КГц
Метод сжатия : С потерями
Размер потока : 3,85 Мбайт (4%)
Скриншоты:


Время раздачи: 24/7 до первых 5 скачавших.
 
Не забывайте говорить Спасибо. Не уходите с раздачи!   
Торрент: Зарегистрирован [02 янв 2015, 12:23] Скачать торрент
Скачать торрент
[ Размер 14.86 КБ / Просмотров 21 ]
Статус:
Проверен
 
.torrent скачан: 0 раз
Хэш: 2ddf38d5cc155247a6cc4b6466a9093df6b8f0b5
Размер: 1.3 ГБ (1 399 041 914 байт)
Стать Автором раздачи
 
 
Раздал: 6.67 ГБ
Скачал: 302.5 МБ
Ратио: 22.576
Сообщения: 374198
Зарегистрирован: 17 апр 2014, 11:05


  • Похожие торренты
    Ответы
    Просмотры
    Последнее сообщение

Вернуться в Музыкальные клипы (транзит)

Ресурс не предоставляет электронные версии произведений, а занимается лишь коллекционированием и каталогизацией ссылок, присылаемых и публикуемых на форуме нашими читателями. Если вы являетесь правообладателем какого-либо представленного материала и не желаете чтобы ссылка на него находилась в нашем каталоге, свяжитесь с нами и мы незамедлительно удалим её. Файлы для обмена на трекере предоставлены пользователями сайта, и администрация не несёт ответственности за их содержание. Просьба не заливать файлы, защищенные авторскими правами, а также файлы нелегального содержания!
cron