VA - Зимний марафон № 150 / Видеоклипы (Новогодние Русские и Зарубежные Супер подборки ''Лихие 90-е'') (2015) [H.264/720p-LQ] WEBRip

 
 Статистика раздачи 
Размер: 5.44 ГБ   |  Зарегистрирован: 01 янв 2015, 16:27   |   .torrent скачан: 2 раз
Сидеров: 1  [ 0 байт/сек ]     Личеров: 0  [ 0 байт/сек ]  
  

VA - Зимний марафон № 150 / Видеоклипы (Новогодние Русские и Зарубежные Супер подборки ''Лихие 90-е'') (2015) [H.264/720p-LQ] WEBRip

Сообщение Thistoll » 01 янв 2015, 16:27

VA - Зимний марафон № 150 / (Новогодние Русские и Зарубежные Супер подборки ''Лихие 90-е'') (2015) WEBRip

Русское название: Зимний марафон № 150
Оригинальное название: (Новогодние Русские и Зарубежные Супер подборки ''Лихие 90-е'')
Год выпуска: 2015
Жанр: Disco, Eurodance, Pop
Контейнер: MP4
Продолжительность: 04:46:00

Описание:
Зимние (01.01.2015) видео клипы зарубежной и руской эстрады. Не пропустите, держите лучшие треки 90-х.

Видеокодек: MPEG-4 AVC/H.264
Битрейт видео: 2.297 - 2.028 kbps avg, 0.100 - 0.088 bit.pixel
Размер кадра: 1280x720 (16:9), 25.000 fps
Качество видео: WEBRip
Аудиокодек: AAC, 2 ch, stereo
Битрейт аудио: 192 Kbps avg
1. Remember The 90's - Gold Eurodance Collection №1 (01:48:00)
2. Remember The 90's - Gold Eurodance Collection №2 (01:46:00)
3. Лихие 90-е - Русская Дискотека (01:52:00)
Общее
Полное имя : E:\VA - Зимний марафон № 150 (Новогодние Русские и Зарубежные Супер подборки ''Лихие 90-е'')\Remember The 90's - Gold Eurodance Collection №1.mp4
Формат : MPEG-4
Профиль формата : Base Media / Version 2
Идентификатор кодека : mp42
Размер файла : 1,81 Гбайт
Продолжительность : 1 ч. 48 м.
Общий поток : 2388 Кбит/сек
Дата кодирования : UTC 2014-12-22 15:50:38
Дата пометки : UTC 2014-12-22 15:50:38
gsst : 0
gstd : 6514288
gssd : B5D9D0A05HH1420057947595087
gshh : r2---sn-nvop3v-qv3e.googlevideo.com

Видео
Идентификатор : 1
Формат : AVC
Формат/Информация : Advanced Video Codec
Профиль формата :
Параметр CABAC формата : Да
Параметр ReFrames формата : 1 кадр
Идентификатор кодека : avc1
Идентификатор кодека/Информация : Advanced Video Coding
Продолжительность : 1 ч. 48 м.
Вид битрейта : Переменный
Битрейт : 2194 Кбит/сек
Максимальный битрейт : 5305 Кбит/сек
Ширина : 1280 пикс.
Высота : 720 пикс.
Соотношение сторон : 16:9
Режим частоты кадров : Постоянный
Частота кадров : 25,000 кадр/сек
Цветовое пространство : YUV
Подвыборка цветности : 4:2:0
Битовая глубина : 8 бит
Тип развёртки : Прогрессивная
Бит/(Пиксели*Кадры) : 0.095
Размер потока : 1,66 Гбайт (92%)
Дата пометки : UTC 2014-12-22 15:53:39

Аудио
Идентификатор : 2
Формат : AAC
Формат/Информация : Advanced Audio Codec
Профиль формата : LC
Идентификатор кодека : 40
Продолжительность : 1 ч. 48 м.
Вид битрейта : Переменный
Битрейт : 192 Кбит/сек
Максимальный битрейт : 202 Кбит/сек
Каналы : 2 канала
Расположение каналов : Front: L R
Частота : 44,1 КГц
Метод сжатия : С потерями
Размер потока : 149 Мбайт (8%)
Заголовок : IsoMedia File Produced by Google, 5-11-2011
Дата кодирования : UTC 2014-12-22 15:52:26
Дата пометки : UTC 2014-12-22 15:53:39
Общее
Полное имя : E:\VA - Зимний марафон № 150 (Новогодние Русские и Зарубежные Супер подборки ''Лихие 90-е'')\Remember The 90's - Gold Eurodance Collection №2.mp4
Формат : MPEG-4
Профиль формата : Base Media / Version 2
Идентификатор кодека : mp42
Размер файла : 1,66 Гбайт
Продолжительность : 1 ч. 46 м.
Общий поток : 2222 Кбит/сек
Дата кодирования : UTC 2014-12-21 22:52:23
Дата пометки : UTC 2014-12-21 22:52:23
gsst : 0
gstd : 6416346
gssd : B5D9D0A06HH1420057928231116
gshh : r3---sn-nvop3v-qv3e.googlevideo.com

Видео
Идентификатор : 1
Формат : AVC
Формат/Информация : Advanced Video Codec
Профиль формата :
Параметр CABAC формата : Да
Параметр ReFrames формата : 1 кадр
Идентификатор кодека : avc1
Идентификатор кодека/Информация : Advanced Video Coding
Продолжительность : 1 ч. 46 м.
Вид битрейта : Переменный
Битрейт : 2028 Кбит/сек
Максимальный битрейт : 5021 Кбит/сек
Ширина : 1280 пикс.
Высота : 720 пикс.
Соотношение сторон : 16:9
Режим частоты кадров : Постоянный
Частота кадров : 25,000 кадр/сек
Цветовое пространство : YUV
Подвыборка цветности : 4:2:0
Битовая глубина : 8 бит
Тип развёртки : Прогрессивная
Бит/(Пиксели*Кадры) : 0.088
Размер потока : 1,51 Гбайт (91%)
Дата пометки : UTC 2014-12-21 22:54:32

Аудио
Идентификатор : 2
Формат : AAC
Формат/Информация : Advanced Audio Codec
Профиль формата : LC
Идентификатор кодека : 40
Продолжительность : 1 ч. 46 м.
Вид битрейта : Переменный
Битрейт : 192 Кбит/сек
Максимальный битрейт : 202 Кбит/сек
Каналы : 2 канала
Расположение каналов : Front: L R
Частота : 44,1 КГц
Метод сжатия : С потерями
Размер потока : 147 Мбайт (9%)
Заголовок : IsoMedia File Produced by Google, 5-11-2011
Дата кодирования : UTC 2014-12-21 22:53:42
Дата пометки : UTC 2014-12-21 22:54:32
Общее
Полное имя : E:\VA - Зимний марафон № 150 (Новогодние Русские и Зарубежные Супер подборки ''Лихие 90-е'')\Лихие 90-е - Русская Дискотека.mp4
Формат : MPEG-4
Профиль формата : Base Media / Version 2
Идентификатор кодека : mp42
Размер файла : 1,97 Гбайт
Продолжительность : 1 ч. 52 м.
Общий поток : 2491 Кбит/сек
Дата кодирования : UTC 2014-12-18 01:01:11
Дата пометки : UTC 2014-12-18 01:01:11
gsst : 0
gstd : 6779226
gssd : B5D9D0A07HH1420057964912517
gshh : r4---sn-nvop3v-qv3e.googlevideo.com

Видео
Идентификатор : 1
Формат : AVC
Формат/Информация : Advanced Video Codec
Профиль формата :
Параметр CABAC формата : Да
Параметр ReFrames формата : 1 кадр
Идентификатор кодека : avc1
Идентификатор кодека/Информация : Advanced Video Coding
Продолжительность : 1 ч. 52 м.
Вид битрейта : Переменный
Битрейт : 2297 Кбит/сек
Максимальный битрейт : 5558 Кбит/сек
Ширина : 1280 пикс.
Высота : 720 пикс.
Соотношение сторон : 16:9
Режим частоты кадров : Постоянный
Частота кадров : 25,000 кадр/сек
Цветовое пространство : YUV
Подвыборка цветности : 4:2:0
Битовая глубина : 8 бит
Тип развёртки : Прогрессивная
Бит/(Пиксели*Кадры) : 0.100
Размер потока : 1,81 Гбайт (92%)
Дата пометки : UTC 2014-12-18 01:06:46

Аудио
Идентификатор : 2
Формат : AAC
Формат/Информация : Advanced Audio Codec
Профиль формата : LC
Идентификатор кодека : 40
Продолжительность : 1 ч. 52 м.
Вид битрейта : Переменный
Битрейт : 192 Кбит/сек
Максимальный битрейт : 202 Кбит/сек
Каналы : 2 канала
Расположение каналов : Front: L R
Частота : 44,1 КГц
Метод сжатия : С потерями
Размер потока : 155 Мбайт (8%)
Заголовок : IsoMedia File Produced by Google, 5-11-2011
Дата кодирования : UTC 2014-12-18 01:05:24
Дата пометки : UTC 2014-12-18 01:06:46
Скриншоты: Remember The 90's - Gold Eurodance Collection №1
Новогоднего настроения и


Время раздачи:
24/7 - до 5 скачавших, далее по возможности.
 
Не забывайте говорить Спасибо. Не уходите с раздачи!   
Торрент: Зарегистрирован [01 янв 2015, 16:27] Скачать торрент
Скачать торрент
[ Размер 14.98 КБ / Просмотров 26 ]
Статус:
Проверен
 
.torrent скачан: 2 раз
Хэш: 08e4d5ad8799eefe5f6e41b3a9813afc69195386
Размер: 5.44 ГБ (5 838 083 146 байт)
Стать Автором раздачи
 
 
Раздал: 6.67 ГБ
Скачал: 302.5 МБ
Ратио: 22.576
Сообщения: 374198
Зарегистрирован: 17 апр 2014, 11:05


  • Похожие торренты
    Ответы
    Просмотры
    Последнее сообщение

Вернуться в Музыкальные клипы (транзит)

Ресурс не предоставляет электронные версии произведений, а занимается лишь коллекционированием и каталогизацией ссылок, присылаемых и публикуемых на форуме нашими читателями. Если вы являетесь правообладателем какого-либо представленного материала и не желаете чтобы ссылка на него находилась в нашем каталоге, свяжитесь с нами и мы незамедлительно удалим её. Файлы для обмена на трекере предоставлены пользователями сайта, и администрация не несёт ответственности за их содержание. Просьба не заливать файлы, защищенные авторскими правами, а также файлы нелегального содержания!
cron