VA - Стол заказов RU.TV 2014 part. 2 (2014) WEB-DL [1080p]

 
 Статистика раздачи 
Размер: 6.42 ГБ   |  Зарегистрирован: 31 дек 2014, 03:10   |   .torrent скачан: 0 раз
Сидеров: 1  [ 0 байт/сек ]     Личеров: 0  [ 0 байт/сек ]  
  

VA - Стол заказов RU.TV 2014 part. 2 (2014) WEB-DL [1080p]

Сообщение Thistoll » 31 дек 2014, 03:10

VA - Стол заказов RU.TV 2014 part. 2 (2014) WEB-DL (1080p)

Исполнитель: Various Artists
Название: Стол заказов RU.TV 2014 part. 2
Год выхода: 2014
Жанр: Dance, Pop, Trance, House, Rap
Кол-во клипов: 27

Содержание:
Вторая часть сборника самых популярных клипов телеканала RU.TV за 2014 год!

Продолжительность: ~01:36:52
Качество видео: WEB-DL [1080p]

Формат: MPEG-4
Видеокодек: AVC (H.264)
Битрейт видео: ~8500kbps
Размер кадра: 1920x1080
Аудиокодек: AAC, 2 ch
Битрейт аудио: 320kbps

Треклист:
01. Нюша - Наедине
02. Ян Марти - Она красива
03. BigBeta - Девушка сильная
04. Элина Чага - Чай с облепихой
05. 5sta Family - Моя мелодия
06. Тимур Родригез - Осколки памяти
07. Согдиана - Молния
08. Shura - Смех и слёзы
09. Пицца - Оружие
10. Лолита - На скотч
11. Светлана Лобода; Emin - Смотришь в небо
12. Надежда Грановская - Дело не в теле
13. Mozgi - Аябо
14. Ирина Дубцова - Вспоминать
15. Александр Коган - Кто кого бросил
16. Зара - Счастье над землёй
17. Вера Брежнева - Девочка моя
18. Глюкоза - Зачем
19. Баста; Тати - Вселенная
20. Диана Гурцкая - Тебя теряю
21. Ёлка - Всё зависит от нас
22. Анна Седокова - Между нами
23. Джиган - На край света
24. Анастасия Стоцкая - Пошутила
25. SEREBRO - Я тебя не отдам
26. Александр Ревва; Вера Брежнева - Луна
27. DJ Цветкoff; Мумий Тролль - Дельфины
Общее
Полное имя : D:\Стол Заказов 2\01. Нюша - Наедине.mp4
Формат : MPEG-4
Профиль формата : Base Media / Version 2
Идентификатор кодека : mp42
Размер файла : 374 Мбайт
Продолжительность : 3 м. 55 с.
Режим общего битрейта : Переменный
Общий поток : 13,3 Мбит/сек
Дата кодирования : UTC 2014-04-25 08:18:45
Дата пометки : UTC 2014-04-25 08:18:54
©TIM : 00:00:00:00
©TSC : 25
©TSZ : 1

Видео
Идентификатор : 1
Формат : AVC
Формат/Информация : Advanced Video Codec
Профиль формата :
Параметр CABAC формата : Да
Параметр ReFrames формата : 3 кадра
Идентификатор кодека : avc1
Идентификатор кодека/Информация : Advanced Video Coding
Продолжительность : 3 м. 55 с.
Битрейт : 13,0 Мбит/сек
Ширина : 1920 пикселей
Высота : 1080 пикселей
Соотношение сторон : 16:9
Режим частоты кадров : Постоянный
Частота кадров : 25,000 кадров/сек
Стандарт вещания : PAL
Цветовое пространство : YUV
Субдискретизация насыщенности : 4:2:0
Битовая глубина : 8 бит
Тип развёртки : Прогрессивная
Бит/(Пиксели*Кадры) : 0.251
Размер потока : 365 Мбайт (98%)
Язык : English
Дата кодирования : UTC 2014-04-25 08:18:45
Дата пометки : UTC 2014-04-25 08:18:45
Основные цвета : BT.709
Характеристики трансфера : BT.709
Коэффициенты матрицы : BT.709

Аудио
Идентификатор : 2
Формат : AAC
Формат/Информация : Advanced Audio Codec
Профиль формата : LC
Идентификатор кодека : 40
Продолжительность : 3 м. 55 с.
Продолжительность оригинала : 3 м. 55 с.
Вид битрейта : Переменный
Битрейт : 317 Кбит/сек
Максимальный битрейт : 471 Кбит/сек
Каналы : 2 канала
Расположение каналов : Front: L R
Частота : 48,0 КГц
Метод сжатия : С потерями
Размер потока : 8,90 Мбайт (2%)
Размер потока оригинала : 8,90 Мбайт (2%)
Язык : English
Дата кодирования : UTC 2014-04-25 08:18:45
Дата пометки : UTC 2014-04-25 08:18:45
mdhd_Duration : 235200
Скриншоты:


Время раздачи: 24/7 до первых 5 скачавших.
 
Не забывайте говорить Спасибо. Не уходите с раздачи!   
Торрент: Зарегистрирован [31 дек 2014, 03:10] Скачать торрент
Скачать торрент
[ Размер 18.93 КБ / Просмотров 14 ]
Статус:
Проверен
 
.torrent скачан: 0 раз
Хэш: 075ef9a3e5ffee0f6a37797c5f478e0a74541932
Размер: 6.42 ГБ (6 889 925 123 байт)
Стать Автором раздачи
 
 
Раздал: 6.67 ГБ
Скачал: 302.5 МБ
Ратио: 22.576
Сообщения: 374198
Зарегистрирован: 17 апр 2014, 11:05


  • Похожие торренты
    Ответы
    Просмотры
    Последнее сообщение

Вернуться в Музыкальные клипы (транзит)

Ресурс не предоставляет электронные версии произведений, а занимается лишь коллекционированием и каталогизацией ссылок, присылаемых и публикуемых на форуме нашими читателями. Если вы являетесь правообладателем какого-либо представленного материала и не желаете чтобы ссылка на него находилась в нашем каталоге, свяжитесь с нами и мы незамедлительно удалим её. Файлы для обмена на трекере предоставлены пользователями сайта, и администрация не несёт ответственности за их содержание. Просьба не заливать файлы, защищенные авторскими правами, а также файлы нелегального содержания!
cron