VA - Стол заказов RU.TV 2014 part. 3 (2014) WEB-DL [1080p]

 
 Статистика раздачи 
Размер: 6.73 ГБ   |  Зарегистрирован: 31 дек 2014, 03:10   |   .torrent скачан: 0 раз
Сидеров: 1  [ 0 байт/сек ]     Личеров: 0  [ 0 байт/сек ]  
  

VA - Стол заказов RU.TV 2014 part. 3 (2014) WEB-DL [1080p]

Сообщение Thistoll » 31 дек 2014, 03:10

VA - Стол заказов RU.TV 2014 part. 3 (2014) WEB-DL (1080p)

Исполнитель: Various Artists
Название: Стол заказов RU.TV 2014 part. 3
Год выхода: 2014
Жанр: Dance, Pop, Trance, House, Rap
Кол-во клипов: 28

Содержание:
Третья часть сборника самых популярных клипов телеканала RU.TV за 2014 год!

Продолжительность: ~01:45:25
Качество видео: WEB-DL [1080p]

Формат: MPEG-4
Видеокодек: AVC (H.264)
Битрейт видео: ~8500kbps
Размер кадра: 1920x1080
Аудиокодек: AAC, 2 ch
Битрейт аудио: 320kbps

Треклист:
01. Денис Клявер - Подари
02. ВИА Гра; Вахтанг - У меня появился другой
03. Ани Лорак - Медленно
04. Дима Билан - Болен тобой
05. Нюша - Только
06. Николай Басков - Зая, я люблю тебя
07. Uma2rman - Танцуй, муза
08. Полина Гагарина - Шагай
09. Александр Коган - Кто придумал мир
10. Сергей Куренков - Девочка-весна
11. A'Dessa - Женщины, я не танцую
12. Жасмин - Свадебные истории
13. Бандэрос - Дай 5
14. Йена - Суббота-свобода
15. DJ MEG; SEREBRO - Угар
16. Юлия Волкова; Лена Катина; Макс Томпкинс; Лигалайз - Любовь в каждом мгновении
17. Invoice - Солнца бит
18. Валерий Меладзе; Валерия - Не теряй меня
19. Бьянка - Я не отступлю
20. Филипп Киркоров - Кумир
21. Ирина Нельсон; Reflex - Прикосновения
22. Влад Топалов - Без тормозов
23. Светлана Лобода - Город под запретом
24. Диана Арбенина - Да, так начинается жизнь
25. Александр Рыбак - Достала
26. Виктория Дайнеко - Бей себя
27. Рим - Цунами
28. Таня Терёшина - Прости
Общее
Полное имя : D:\Стол Заказов 3\02. ВИА Гра; Вахтанг - У меня появился другой.mp4
Формат : MPEG-4
Профиль формата : Base Media / Version 2
Идентификатор кодека : mp42
Размер файла : 210 Мбайт
Продолжительность : 3 м. 32 с.
Режим общего битрейта : Переменный
Общий поток : 8308 Кбит/сек
Дата кодирования : UTC 2014-06-17 15:17:07
Дата пометки : UTC 2014-06-17 15:17:09
©TIM : 00:00:10:00
©TSC : 25
©TSZ : 1

Видео
Идентификатор : 1
Формат : AVC
Формат/Информация : Advanced Video Codec
Профиль формата :
Параметр CABAC формата : Да
Параметр ReFrames формата : 3 кадра
Идентификатор кодека : avc1
Идентификатор кодека/Информация : Advanced Video Coding
Продолжительность : 3 м. 32 с.
Вид битрейта : Переменный
Битрейт : 8000 Кбит/сек
Ширина : 1920 пикселей
Высота : 1080 пикселей
Соотношение сторон : 16:9
Режим частоты кадров : Постоянный
Частота кадров : 25,000 кадров/сек
Стандарт вещания : PAL
Цветовое пространство : YUV
Субдискретизация насыщенности : 4:2:0
Битовая глубина : 8 бит
Тип развёртки : Прогрессивная
Бит/(Пиксели*Кадры) : 0.154
Размер потока : 202 Мбайт (96%)
Язык : English
Дата кодирования : UTC 2014-06-17 15:17:07
Дата пометки : UTC 2014-06-17 15:17:07
Основные цвета : BT.709
Характеристики трансфера : BT.709
Коэффициенты матрицы : BT.709

Аудио
Идентификатор : 2
Формат : AAC
Формат/Информация : Advanced Audio Codec
Профиль формата : LC
Идентификатор кодека : 40
Продолжительность : 3 м. 32 с.
Продолжительность оригинала : 3 м. 32 с.
Вид битрейта : Переменный
Битрейт : 317 Кбит/сек
Максимальный битрейт : 411 Кбит/сек
Каналы : 2 канала
Расположение каналов : Front: L R
Частота : 48,0 КГц
Метод сжатия : С потерями
Размер потока : 8,02 Мбайт (4%)
Размер потока оригинала : 8,02 Мбайт (4%)
Язык : English
Дата кодирования : UTC 2014-06-17 15:17:07
Дата пометки : UTC 2014-06-17 15:17:07
Скриншоты:


Время раздачи: 24/7 до первых 5 скачавших.
 
Не забывайте говорить Спасибо. Не уходите с раздачи!   
Торрент: Зарегистрирован [31 дек 2014, 03:10] Скачать торрент
Скачать торрент
[ Размер 19.96 КБ / Просмотров 18 ]
Статус:
Проверен
 
.torrent скачан: 0 раз
Хэш: e1bd6c32941e0054ccb18785874273d8003c4fab
Размер: 6.73 ГБ (7 228 999 399 байт)
Стать Автором раздачи
 
 
Раздал: 6.67 ГБ
Скачал: 302.5 МБ
Ратио: 22.576
Сообщения: 374198
Зарегистрирован: 17 апр 2014, 11:05


  • Похожие торренты
    Ответы
    Просмотры
    Последнее сообщение

Вернуться в Музыкальные клипы (транзит)

Ресурс не предоставляет электронные версии произведений, а занимается лишь коллекционированием и каталогизацией ссылок, присылаемых и публикуемых на форуме нашими читателями. Если вы являетесь правообладателем какого-либо представленного материала и не желаете чтобы ссылка на него находилась в нашем каталоге, свяжитесь с нами и мы незамедлительно удалим её. Файлы для обмена на трекере предоставлены пользователями сайта, и администрация не несёт ответственности за их содержание. Просьба не заливать файлы, защищенные авторскими правами, а также файлы нелегального содержания!
cron