(Rock) [LP] [24/96] Машина Времени - В Добрый Час - 1986, FLAC (tracks+.cue)

 
 Статистика раздачи 
Размер: 796.93 МБ   |  Зарегистрирован: 29 дек 2014, 23:09   |   .torrent скачан: 1 раз
Сидеров: 1  [ 0 байт/сек ]     Личеров: 0  [ 0 байт/сек ]  
  

(Rock) [LP] [24/96] Машина Времени - В Добрый Час - 1986, FLAC (tracks+.cue)

Сообщение bagouser » 29 дек 2014, 23:09

Машина Времени - В Добрый Час

Жанр: Rock
Носитель: LP
Год выпуска: 1986
Лейбл: Melodya
Страна-производитель: USSR
Аудио кодек: FLAC
Тип рипа: tracks+.cue
Формат записи: 32/192
Формат раздачи: 24/96
Продолжительность: 39.10 min
Треклист:
01. Путь
02. За Тех,Кто В Море
03. Музыка Под Снегом
04. Пока Горит Свеча
05. В Добрый Час
06. Хрустальный Город
07. Снег
08. Скворец
09. Рыбка В Банке
10. Старый Рок-Н-Ролл

Источник оцифровки: автором раздачи
Код класса состояния винила: Ex
Устройство воспроизведения: Электроника ЭП 017С
Головка звукоснимателя: Audio-Technica AT95
Предварительный усилитель: Бриг-001
АЦП: VIA HD audio device
Программа-оцифровщик: Izotope RX 4 Advanced
Обработка: Manual
foobar2000 1.1.10 / Dynamic Range Meter 1.1.1
log date: 2014-12-29 13:15:07

--------------------------------------------------------------------------------
Analyzed: Машина времени / В добрый час
--------------------------------------------------------------------------------

DR Peak RMS Duration Track
--------------------------------------------------------------------------------
DR12 -2.52 dB -19.86 dB 3:25 ?-Путь
DR14 -2.38 dB -17.99 dB 3:47 ?-За тех, кто в море
DR15 -3.41 dB -19.60 dB 4:33 ?-Музыка под снегом
DR12 -2.34 dB -18.26 dB 4:15 ?-Пока горит свеча
DR15 -2.17 dB -19.73 dB 3:36 ?-В добрый час
DR15 -1.72 dB -21.12 dB 6:10 ?-Хрустальный город
DR14 -2.71 dB -21.81 dB 3:03 ?-Снег
DR14 -2.19 dB -18.97 dB 3:53 ?-Скворец
DR15 -2.67 dB -19.74 dB 3:02 ?-Рыбка в банке
DR13 -1.96 dB -17.36 dB 3:13 ?-Старый рок-н-ролл
--------------------------------------------------------------------------------

Number of tracks: 10
Official DR value: DR14

Samplerate: 96000 Hz
Channels: 2
Bits per sample: 24
Bitrate: 2764 kbps
Codec: FLAC
================================================================================

347


раздачу перезалил: оно с новой головки,AT-91 заменен на Audio-Technica AT95
Можно опубликовать на любом сайте не спрашивая автора!
 
Не забывайте говорить Спасибо. Не уходите с раздачи!   
Торрент: Зарегистрирован [29 дек 2014, 23:09] Скачать торрент
Скачать торрент
[ Размер 17.21 КБ / Просмотров 13 ]
Статус:
Проверен
 
.torrent скачан: 1 раз
Хэш: 9b58c3d453f57d2ce3fecdca7da0917c9b269e9a
Размер: 796.93 МБ (835 641 714 байт)
Стать Автором раздачи
 
Аватара пользователя
 
Раздал: 3.77 ТБ
Скачал: 406.3 ГБ
Ратио: 9.496
Сообщения: 468705
Зарегистрирован: 20 янв 2011, 21:15


  • Похожие торренты
    Ответы
    Просмотры
    Последнее сообщение

Вернуться в Отечественный рок (собственные оцифровки)

Ресурс не предоставляет электронные версии произведений, а занимается лишь коллекционированием и каталогизацией ссылок, присылаемых и публикуемых на форуме нашими читателями. Если вы являетесь правообладателем какого-либо представленного материала и не желаете чтобы ссылка на него находилась в нашем каталоге, свяжитесь с нами и мы незамедлительно удалим её. Файлы для обмена на трекере предоставлены пользователями сайта, и администрация не несёт ответственности за их содержание. Просьба не заливать файлы, защищенные авторскими правами, а также файлы нелегального содержания!
cron