VA - Зимний марафон № 149 / Видеоклипы (Новые Клипы Уходящего Года) (2014) [H.264/1080p-LQ] WEBRip

 
 Статистика раздачи 
Размер: 3.16 ГБ   |  Зарегистрирован: 29 дек 2014, 01:20   |   .torrent скачан: 0 раз
Сидеров: 1  [ 0 байт/сек ]     Личеров: 0  [ 0 байт/сек ]  
  

VA - Зимний марафон № 149 / Видеоклипы (Новые Клипы Уходящего Года) (2014) [H.264/1080p-LQ] WEBRip

Сообщение Thistoll » 29 дек 2014, 01:20

VA - Зимний марафон № 149 / (Новые Клипы Уходящего Года) (2014) WEBRip

Русское название: Зимний марафон № 149
Оригинальное название: (Новые Клипы Уходящего Года)
Год выпуска: 2014
Жанр: Pop, Dance
Контейнер: MP4
Кол-во клипов: 25
Продолжительность: 01:33:20

Описание:
Новогодние (28.12.2014) поп. новинки зарубежной и русской эстрады. Не пропустите, держите новые треки.

Видеокодек: MPEG-4 AVC/H.264
Битрейт видео: 4.496 kbps avg, 0.87 bit.pixel
Размер кадра: 1920x1080 (16:9), 25.000 fps
Качество видео: WEBRip
Аудиокодек: AAC, 2 ch, stereo
Битрейт аудио: 144 - 152 Kbps avg
1. Bonnie McKee - California Winter (00:04:31)
2. Jessi Malay - Have Yourself A Merry Little Christmas (00:03:49)
3. OST Рэпанутые - В Новогоднюю ночь я хочу быть с тобой (ПРЕМЬЕРА!) (00:03:19)
4. Pitbull ft. Ne-Yo - Time Of Our Lives (00:04:41)
5. Амадор Лопес & Rumberos - З новим роком (ПРЕМЬЕРА!) (00:03:12)
6. Анастасия Стоцкая ft. Крупник - Ёлка-ёлка (ПРЕМЬЕРА!) (00:03:19)
7. Афродита - Новогодняя ночь (ПРЕМЬЕРА!) (00:03:22)
8. БигБэта - Это Новый год - Да! (ПРЕМЬЕРА!) (00:03:49)
9. Виталька - Мама, Я Хочу Елочку (ПРЕМЬЕРА!) (00:04:16)
10. Григорий Лепс ft. Наталия Власова - Бай-бай (ПРЕМЬЕРА!) (00:03:09)
11. Джигурда - СантаДжигурда или Новогодний Джингурдэнс (ПРЕМЬЕРА!) (00:03:32)
12. Диля Даль и Даниил Иванов - Зима, зачем (ПРЕМЬЕРА!) (00:04:02)
13. Дима Билан - Когда растает лед (саундтрек к шоу 'Снежный король') (00:04:04)
14. Елена Максимова - Наш первый новый год (ПРЕМЬЕРА!) (00:04:44)
15. Ленинград — Никола (ПРЕМЬЕРА!) (00:04:41)
16. Лера Туманова - Новогодняя (ПРЕМЬЕРА!) (00:03:09)
17. Лоя - Снежинки (ПРЕМЬЕРА!) (00:03:59)
18. Натали - Новогодняя (ПРЕМЬЕРА!) (00:03:42)
19. Николай Тимофеев - С Новым Годом! (ПРЕМЬЕРА!) (00:03:49)
20. Нэнси - Новогодняя (ПРЕМЬЕРА!) (00:06:07)
21. Ольга Горбачева - Снег (ПРЕМЬЕРА!) (00:03:13)
22. Оля Полякова - С Новым Годом! (ПРЕМЬЕРА!) (00:03:40)
23. Сабина Нэльс - Холод (ПРЕМЬЕРА!) (00:03:06)
24. Слава ft. Dенис Клявер - Рождественская ночь (ПРЕМЬЕРА!) (00:04:33)
25. Юлия Беретта - С Новым Годом, Друзья! (ПРЕМЬЕРА!) (00:03:30)
Общее
Полное имя : E:\VA - Зимний марафон № 149 (Новые Клипы Уходящего Года)\Bonnie McKee - California Winter.mp4
Формат : MPEG-4
Профиль формата : Base Media
Идентификатор кодека : isom
Размер файла : 152 Мбайт
Продолжительность : 4 м. 31 с.
Общий поток : 4699 Кбит/сек
Дата кодирования : UTC 2014-12-27 05:11:41
Дата пометки : UTC 2014-12-27 05:11:41
Программа кодирования : Lavf54.63.104

Видео
Идентификатор : 1
Формат : AVC
Формат/Информация : Advanced Video Codec
Профиль формата :
Параметр CABAC формата : Да
Параметр ReFrames формата : 1 кадр
Идентификатор кодека : avc1
Идентификатор кодека/Информация : Advanced Video Coding
Продолжительность : 4 м. 31 с.
Вид битрейта : Переменный
Битрейт : 4496 Кбит/сек
Ширина : 1920 пикс.
Высота : 1080 пикс.
Соотношение сторон : 16:9
Режим частоты кадров : Постоянный
Частота кадров : 25,000 кадр/сек
Цветовое пространство : YUV
Подвыборка цветности : 4:2:0
Битовая глубина : 8 бит
Тип развёртки : Прогрессивная
Бит/(Пиксели*Кадры) : 0.087
Размер потока : 147 Мбайт (97%)
Библиотека кодирования : x264 core 129
Настройки программы : cabac=1 / ref=1 / deblock=1:0:0 / analyse=0x1:0x131 / me=dia / subme=2 / psy=1 / psy_rd=1.00:0.00 / mixed_ref=0 / me_range=16 / chroma_me=1 / trellis=0 / 8x8dct=0 / cqm=0 / deadzone=21,11 / fast_pskip=1 / chroma_qp_offset=0 / threads=2 / lookahead_threads=1 / sliced_threads=0 / nr=0 / decimate=1 / interlaced=0 / bluray_compat=0 / constrained_intra=0 / bframes=0 / weightp=2 / keyint=250 / keyint_min=25 / scenecut=40 / intra_refresh=0 / rc_lookahead=40 / rc=abr / mbtree=1 / bitrate=4496 / ratetol=1.0 / qcomp=0.60 / qpmin=10 / qpmax=51 / qpstep=4 / ip_ratio=1.41 / aq=1:1.00
Дата кодирования : UTC 2014-12-27 05:11:41
Дата пометки : UTC 2014-12-27 05:11:41

Аудио
Идентификатор : 2
Формат : AAC
Формат/Информация : Advanced Audio Codec
Профиль формата : LC
Идентификатор кодека : 40
Продолжительность : 4 м. 31 с.
Вид битрейта : Переменный
Битрейт : 151 Кбит/сек
Максимальный битрейт : 176,4 Кбит/сек
Каналы : 2 канала
Расположение каналов : Front: L R
Частота : 44,1 КГц
Метод сжатия : С потерями
Размер потока : 4,90 Мбайт (3%)
Дата кодирования : UTC 2014-12-27 05:11:41
Дата пометки : UTC 2014-12-27 05:11:41
Общее
Полное имя : E:\VA - Зимний марафон № 149 (Новые Клипы Уходящего Года)\Jessi Malay - Have Yourself A Merry Little Christmas.mp4
Формат : MPEG-4
Профиль формата : Base Media
Идентификатор кодека : isom
Размер файла : 123 Мбайт
Продолжительность : 3 м. 49 с.
Общий поток : 4483 Кбит/сек
Дата кодирования : UTC 2014-12-23 02:51:51
Дата пометки : UTC 2014-12-23 02:51:51
Программа кодирования : Lavf54.63.104

Видео
Идентификатор : 1
Формат : AVC
Формат/Информация : Advanced Video Codec
Профиль формата :
Параметр CABAC формата : Да
Параметр ReFrames формата : 1 кадр
Идентификатор кодека : avc1
Идентификатор кодека/Информация : Advanced Video Coding
Продолжительность : 3 м. 49 с.
Вид битрейта : Переменный
Битрейт : 4496 Кбит/сек
Ширина : 1920 пикс.
Высота : 1080 пикс.
Соотношение сторон : 16:9
Режим частоты кадров : Постоянный
Частота кадров : 25,000 кадр/сек
Цветовое пространство : YUV
Подвыборка цветности : 4:2:0
Битовая глубина : 8 бит
Тип развёртки : Прогрессивная
Бит/(Пиксели*Кадры) : 0.087
Размер потока : 119 Мбайт (97%)
Библиотека кодирования : x264 core 129
Настройки программы : cabac=1 / ref=1 / deblock=1:0:0 / analyse=0x1:0x131 / me=dia / subme=2 / psy=1 / psy_rd=1.00:0.00 / mixed_ref=0 / me_range=16 / chroma_me=1 / trellis=0 / 8x8dct=0 / cqm=0 / deadzone=21,11 / fast_pskip=1 / chroma_qp_offset=0 / threads=2 / lookahead_threads=1 / sliced_threads=0 / nr=0 / decimate=1 / interlaced=0 / bluray_compat=0 / constrained_intra=0 / bframes=0 / weightp=2 / keyint=250 / keyint_min=25 / scenecut=40 / intra_refresh=0 / rc_lookahead=40 / rc=abr / mbtree=1 / bitrate=4496 / ratetol=1.0 / qcomp=0.60 / qpmin=10 / qpmax=51 / qpstep=4 / ip_ratio=1.41 / aq=1:1.00
Дата кодирования : UTC 2014-12-23 02:51:51
Дата пометки : UTC 2014-12-23 02:51:51

Аудио
Идентификатор : 2
Формат : AAC
Формат/Информация : Advanced Audio Codec
Профиль формата : LC
Идентификатор кодека : 40
Продолжительность : 3 м. 49 с.
Вид битрейта : Переменный
Битрейт : 144 Кбит/сек
Максимальный битрейт : 176,4 Кбит/сек
Каналы : 2 канала
Расположение каналов : Front: L R
Частота : 44,1 КГц
Метод сжатия : С потерями
Размер потока : 3,91 Мбайт (3%)
Дата кодирования : UTC 2014-12-23 02:51:51
Дата пометки : UTC 2014-12-23 02:51:51
Общее
Полное имя : E:\VA - Зимний марафон № 149 (Новые Клипы Уходящего Года)\OST Рэпанутые - В Новогоднюю ночь я хочу быть с тобой (ПРЕМЬЕРА!).mp4
Формат : MPEG-4
Профиль формата : Base Media
Идентификатор кодека : isom
Размер файла : 112 Мбайт
Продолжительность : 3 м. 18 с.
Общий поток : 4754 Кбит/сек
Дата кодирования : UTC 2014-12-26 15:28:45
Дата пометки : UTC 2014-12-26 15:28:45
Программа кодирования : Lavf54.63.104

Видео
Идентификатор : 1
Формат : AVC
Формат/Информация : Advanced Video Codec
Профиль формата :
Параметр CABAC формата : Да
Параметр ReFrames формата : 1 кадр
Идентификатор кодека : avc1
Идентификатор кодека/Информация : Advanced Video Coding
Продолжительность : 3 м. 18 с.
Вид битрейта : Переменный
Битрейт : 4496 Кбит/сек
Ширина : 1920 пикс.
Высота : 1080 пикс.
Соотношение сторон : 16:9
Режим частоты кадров : Постоянный
Частота кадров : 25,000 кадр/сек
Цветовое пространство : YUV
Подвыборка цветности : 4:2:0
Битовая глубина : 8 бит
Тип развёртки : Прогрессивная
Бит/(Пиксели*Кадры) : 0.087
Размер потока : 109 Мбайт (97%)
Библиотека кодирования : x264 core 129
Настройки программы : cabac=1 / ref=1 / deblock=1:0:0 / analyse=0x1:0x131 / me=dia / subme=2 / psy=1 / psy_rd=1.00:0.00 / mixed_ref=0 / me_range=16 / chroma_me=1 / trellis=0 / 8x8dct=0 / cqm=0 / deadzone=21,11 / fast_pskip=1 / chroma_qp_offset=0 / threads=2 / lookahead_threads=1 / sliced_threads=0 / nr=0 / decimate=1 / interlaced=0 / bluray_compat=0 / constrained_intra=0 / bframes=0 / weightp=2 / keyint=250 / keyint_min=25 / scenecut=40 / intra_refresh=0 / rc_lookahead=40 / rc=abr / mbtree=1 / bitrate=4496 / ratetol=1.0 / qcomp=0.60 / qpmin=10 / qpmax=51 / qpstep=4 / ip_ratio=1.41 / aq=1:1.00
Дата кодирования : UTC 2014-12-26 15:28:45
Дата пометки : UTC 2014-12-26 15:28:45

Аудио
Идентификатор : 2
Формат : AAC
Формат/Информация : Advanced Audio Codec
Профиль формата : LC
Идентификатор кодека : 40
Продолжительность : 3 м. 18 с.
Вид битрейта : Переменный
Битрейт : 152 Кбит/сек
Максимальный битрейт : 176,4 Кбит/сек
Каналы : 2 канала
Расположение каналов : Front: L R
Частота : 44,1 КГц
Метод сжатия : С потерями
Размер потока : 3,58 Мбайт (3%)
Дата кодирования : UTC 2014-12-26 15:28:45
Дата пометки : UTC 2014-12-26 15:28:45
Общее
Полное имя : E:\VA - Зимний марафон № 149 (Новые Клипы Уходящего Года)\Pitbull, Ne-Yo - Time Of Our Lives.mp4
Формат : MPEG-4
Профиль формата : Base Media
Идентификатор кодека : isom
Размер файла : 156 Мбайт
Продолжительность : 4 м. 41 с.
Общий поток : 4660 Кбит/сек
Дата кодирования : UTC 2014-12-23 18:58:13
Дата пометки : UTC 2014-12-23 18:58:13
Программа кодирования : Lavf54.63.104

Видео
Идентификатор : 1
Формат : AVC
Формат/Информация : Advanced Video Codec
Профиль формата :
Параметр CABAC формата : Да
Параметр ReFrames формата : 1 кадр
Идентификатор кодека : avc1
Идентификатор кодека/Информация : Advanced Video Coding
Продолжительность : 4 м. 41 с.
Вид битрейта : Переменный
Битрейт : 4496 Кбит/сек
Ширина : 1920 пикс.
Высота : 1080 пикс.
Соотношение сторон : 16:9
Режим частоты кадров : Постоянный
Частота кадров : 25,000 кадр/сек
Цветовое пространство : YUV
Подвыборка цветности : 4:2:0
Битовая глубина : 8 бит
Тип развёртки : Прогрессивная
Бит/(Пиксели*Кадры) : 0.087
Размер потока : 151 Мбайт (97%)
Библиотека кодирования : x264 core 129
Настройки программы : cabac=1 / ref=1 / deblock=1:0:0 / analyse=0x1:0x131 / me=dia / subme=2 / psy=1 / psy_rd=1.00:0.00 / mixed_ref=0 / me_range=16 / chroma_me=1 / trellis=0 / 8x8dct=0 / cqm=0 / deadzone=21,11 / fast_pskip=1 / chroma_qp_offset=0 / threads=2 / lookahead_threads=1 / sliced_threads=0 / nr=0 / decimate=1 / interlaced=0 / bluray_compat=0 / constrained_intra=0 / bframes=0 / weightp=2 / keyint=250 / keyint_min=25 / scenecut=40 / intra_refresh=0 / rc_lookahead=40 / rc=abr / mbtree=1 / bitrate=4496 / ratetol=1.0 / qcomp=0.60 / qpmin=10 / qpmax=51 / qpstep=4 / ip_ratio=1.41 / aq=1:1.00
Дата кодирования : UTC 2014-12-23 18:58:13
Дата пометки : UTC 2014-12-23 18:58:13

Аудио
Идентификатор : 2
Формат : AAC
Формат/Информация : Advanced Audio Codec
Профиль формата : LC
Идентификатор кодека : 40
Продолжительность : 4 м. 41 с.
Вид битрейта : Переменный
Битрейт : 151 Кбит/сек
Максимальный битрейт : 176,4 Кбит/сек
Каналы : 2 канала
Расположение каналов : Front: L R
Частота : 44,1 КГц
Метод сжатия : С потерями
Размер потока : 5,07 Мбайт (3%)
Дата кодирования : UTC 2014-12-23 18:58:13
Дата пометки : UTC 2014-12-23 18:58:13
Общее
Полное имя : E:\VA - Зимний марафон № 149 (Новые Клипы Уходящего Года)\Амадор Лопес & Rumberos - З новим роком (ПРЕМЬЕРА!).mp4
Формат : MPEG-4
Профиль формата : Base Media
Идентификатор кодека : isom
Размер файла : 109 Мбайт
Продолжительность : 3 м. 12 с.
Общий поток : 4765 Кбит/сек
Дата кодирования : UTC 2014-12-15 11:44:39
Дата пометки : UTC 2014-12-15 11:44:39
Программа кодирования : Lavf54.63.104

Видео
Идентификатор : 1
Формат : AVC
Формат/Информация : Advanced Video Codec
Профиль формата :
Параметр CABAC формата : Да
Параметр ReFrames формата : 1 кадр
Идентификатор кодека : avc1
Идентификатор кодека/Информация : Advanced Video Coding
Продолжительность : 3 м. 12 с.
Вид битрейта : Переменный
Битрейт : 4496 Кбит/сек
Ширина : 1920 пикс.
Высота : 1080 пикс.
Соотношение сторон : 16:9
Режим частоты кадров : Постоянный
Частота кадров : 25,000 кадр/сек
Цветовое пространство : YUV
Подвыборка цветности : 4:2:0
Битовая глубина : 8 бит
Тип развёртки : Прогрессивная
Бит/(Пиксели*Кадры) : 0.087
Размер потока : 106 Мбайт (97%)
Библиотека кодирования : x264 core 129
Настройки программы : cabac=1 / ref=1 / deblock=1:0:0 / analyse=0x1:0x131 / me=dia / subme=2 / psy=1 / psy_rd=1.00:0.00 / mixed_ref=0 / me_range=16 / chroma_me=1 / trellis=0 / 8x8dct=0 / cqm=0 / deadzone=21,11 / fast_pskip=1 / chroma_qp_offset=0 / threads=2 / lookahead_threads=1 / sliced_threads=0 / nr=0 / decimate=1 / interlaced=0 / bluray_compat=0 / constrained_intra=0 / bframes=0 / weightp=2 / keyint=250 / keyint_min=25 / scenecut=40 / intra_refresh=0 / rc_lookahead=40 / rc=abr / mbtree=1 / bitrate=4496 / ratetol=1.0 / qcomp=0.60 / qpmin=10 / qpmax=51 / qpstep=4 / ip_ratio=1.41 / aq=1:1.00
Дата кодирования : UTC 2014-12-15 11:44:39
Дата пометки : UTC 2014-12-15 11:44:39

Аудио
Идентификатор : 2
Формат : AAC
Формат/Информация : Advanced Audio Codec
Профиль формата : LC
Идентификатор кодека : 40
Продолжительность : 3 м. 12 с.
Вид битрейта : Переменный
Битрейт : 152 Кбит/сек
Максимальный битрейт : 176,4 Кбит/сек
Каналы : 2 канала
Расположение каналов : Front: L R
Частота : 44,1 КГц
Метод сжатия : С потерями
Размер потока : 3,49 Мбайт (3%)
Дата кодирования : UTC 2014-12-15 11:44:39
Дата пометки : UTC 2014-12-15 11:44:39
Общее
Полное имя : E:\VA - Зимний марафон № 149 (Новые Клипы Уходящего Года)\Анастасия Стоцкая ft. Крупник - Ёлка-ёлка (ПРЕМЬЕРА!).mp4
Формат : MPEG-4
Профиль формата : Base Media
Идентификатор кодека : isom
Размер файла : 107 Мбайт
Продолжительность : 3 м. 19 с.
Общий поток : 4488 Кбит/сек
Дата кодирования : UTC 2014-12-25 08:14:03
Дата пометки : UTC 2014-12-25 08:14:03
Программа кодирования : Lavf54.63.104

Видео
Идентификатор : 1
Формат : AVC
Формат/Информация : Advanced Video Codec
Профиль формата :
Параметр CABAC формата : Да
Параметр ReFrames формата : 1 кадр
Идентификатор кодека : avc1
Идентификатор кодека/Информация : Advanced Video Coding
Продолжительность : 3 м. 19 с.
Вид битрейта : Переменный
Битрейт : 4496 Кбит/сек
Ширина : 1920 пикс.
Высота : 1080 пикс.
Соотношение сторон : 16:9
Режим частоты кадров : Постоянный
Частота кадров : 25,000 кадр/сек
Цветовое пространство : YUV
Подвыборка цветности : 4:2:0
Битовая глубина : 8 бит
Тип развёртки : Прогрессивная
Бит/(Пиксели*Кадры) : 0.087
Размер потока : 103 Мбайт (96%)
Библиотека кодирования : x264 core 129
Настройки программы : cabac=1 / ref=1 / deblock=1:0:0 / analyse=0x1:0x131 / me=dia / subme=2 / psy=1 / psy_rd=1.00:0.00 / mixed_ref=0 / me_range=16 / chroma_me=1 / trellis=0 / 8x8dct=0 / cqm=0 / deadzone=21,11 / fast_pskip=1 / chroma_qp_offset=0 / threads=2 / lookahead_threads=1 / sliced_threads=0 / nr=0 / decimate=1 / interlaced=0 / bluray_compat=0 / constrained_intra=0 / bframes=0 / weightp=2 / keyint=250 / keyint_min=25 / scenecut=40 / intra_refresh=0 / rc_lookahead=40 / rc=abr / mbtree=1 / bitrate=4496 / ratetol=1.0 / qcomp=0.60 / qpmin=10 / qpmax=51 / qpstep=4 / ip_ratio=1.41 / aq=1:1.00
Дата кодирования : UTC 2014-12-25 08:14:03
Дата пометки : UTC 2014-12-25 08:14:03

Аудио
Идентификатор : 2
Формат : AAC
Формат/Информация : Advanced Audio Codec
Профиль формата : LC
Идентификатор кодека : 40
Продолжительность : 3 м. 19 с.
Вид битрейта : Переменный
Битрейт : 152 Кбит/сек
Максимальный битрейт : 176,4 Кбит/сек
Каналы : 2 канала
Расположение каналов : Front: L R
Частота : 44,1 КГц
Метод сжатия : С потерями
Размер потока : 3,61 Мбайт (3%)
Дата кодирования : UTC 2014-12-25 08:14:03
Дата пометки : UTC 2014-12-25 08:14:03
Общее
Полное имя : E:\VA - Зимний марафон № 149 (Новые Клипы Уходящего Года)\Афродита - Новогодняя ночь (ПРЕМЬЕРА!).mp4
Формат : MPEG-4
Профиль формата : Base Media
Идентификатор кодека : isom
Размер файла : 107 Мбайт
Продолжительность : 3 м. 22 с.
Общий поток : 4457 Кбит/сек
Дата кодирования : UTC 2014-12-25 11:49:36
Дата пометки : UTC 2014-12-25 11:49:36
Программа кодирования : Lavf54.63.104

Видео
Идентификатор : 1
Формат : AVC
Формат/Информация : Advanced Video Codec
Профиль формата :
Параметр CABAC формата : Да
Параметр ReFrames формата : 1 кадр
Идентификатор кодека : avc1
Идентификатор кодека/Информация : Advanced Video Coding
Продолжительность : 3 м. 22 с.
Вид битрейта : Переменный
Битрейт : 4496 Кбит/сек
Ширина : 1920 пикс.
Высота : 1080 пикс.
Соотношение сторон : 16:9
Режим частоты кадров : Постоянный
Частота кадров : 25,000 кадр/сек
Цветовое пространство : YUV
Подвыборка цветности : 4:2:0
Битовая глубина : 8 бит
Тип развёртки : Прогрессивная
Бит/(Пиксели*Кадры) : 0.087
Размер потока : 104 Мбайт (96%)
Библиотека кодирования : x264 core 129
Настройки программы : cabac=1 / ref=1 / deblock=1:0:0 / analyse=0x1:0x131 / me=dia / subme=2 / psy=1 / psy_rd=1.00:0.00 / mixed_ref=0 / me_range=16 / chroma_me=1 / trellis=0 / 8x8dct=0 / cqm=0 / deadzone=21,11 / fast_pskip=1 / chroma_qp_offset=0 / threads=2 / lookahead_threads=1 / sliced_threads=0 / nr=0 / decimate=1 / interlaced=0 / bluray_compat=0 / constrained_intra=0 / bframes=0 / weightp=2 / keyint=250 / keyint_min=25 / scenecut=40 / intra_refresh=0 / rc_lookahead=40 / rc=abr / mbtree=1 / bitrate=4496 / ratetol=1.0 / qcomp=0.60 / qpmin=10 / qpmax=51 / qpstep=4 / ip_ratio=1.41 / aq=1:1.00
Дата кодирования : UTC 2014-12-25 11:49:36
Дата пометки : UTC 2014-12-25 11:49:36

Аудио
Идентификатор : 2
Формат : AAC
Формат/Информация : Advanced Audio Codec
Профиль формата : LC
Идентификатор кодека : 40
Продолжительность : 3 м. 22 с.
Вид битрейта : Переменный
Битрейт : 151 Кбит/сек
Максимальный битрейт : 176,4 Кбит/сек
Каналы : 2 канала
Расположение каналов : Front: L R
Частота : 44,1 КГц
Метод сжатия : С потерями
Размер потока : 3,65 Мбайт (3%)
Дата кодирования : UTC 2014-12-25 11:49:36
Дата пометки : UTC 2014-12-25 11:49:36
Общее
Полное имя : E:\VA - Зимний марафон № 149 (Новые Клипы Уходящего Года)\БигБэта - Это Новый год - Да! (ПРЕМЬЕРА!).mp4
Формат : MPEG-4
Профиль формата : Base Media
Идентификатор кодека : isom
Размер файла : 123 Мбайт
Продолжительность : 3 м. 48 с.
Общий поток : 4506 Кбит/сек
Дата кодирования : UTC 2014-12-07 12:04:05
Дата пометки : UTC 2014-12-07 12:04:05
Программа кодирования : Lavf54.63.104

Видео
Идентификатор : 1
Формат : AVC
Формат/Информация : Advanced Video Codec
Профиль формата :
Параметр CABAC формата : Да
Параметр ReFrames формата : 1 кадр
Идентификатор кодека : avc1
Идентификатор кодека/Информация : Advanced Video Coding
Продолжительность : 3 м. 48 с.
Вид битрейта : Переменный
Битрейт : 4496 Кбит/сек
Ширина : 1920 пикс.
Высота : 1080 пикс.
Соотношение сторон : 16:9
Режим частоты кадров : Постоянный
Частота кадров : 25,000 кадр/сек
Цветовое пространство : YUV
Подвыборка цветности : 4:2:0
Битовая глубина : 8 бит
Тип развёртки : Прогрессивная
Бит/(Пиксели*Кадры) : 0.087
Размер потока : 119 Мбайт (97%)
Библиотека кодирования : x264 core 129
Настройки программы : cabac=1 / ref=1 / deblock=1:0:0 / analyse=0x1:0x131 / me=dia / subme=2 / psy=1 / psy_rd=1.00:0.00 / mixed_ref=0 / me_range=16 / chroma_me=1 / trellis=0 / 8x8dct=0 / cqm=0 / deadzone=21,11 / fast_pskip=1 / chroma_qp_offset=0 / threads=2 / lookahead_threads=1 / sliced_threads=0 / nr=0 / decimate=1 / interlaced=0 / bluray_compat=0 / constrained_intra=0 / bframes=0 / weightp=2 / keyint=250 / keyint_min=25 / scenecut=40 / intra_refresh=0 / rc_lookahead=40 / rc=abr / mbtree=1 / bitrate=4496 / ratetol=1.0 / qcomp=0.60 / qpmin=10 / qpmax=51 / qpstep=4 / ip_ratio=1.41 / aq=1:1.00
Дата кодирования : UTC 2014-12-07 12:04:05
Дата пометки : UTC 2014-12-07 12:04:05

Аудио
Идентификатор : 2
Формат : AAC
Формат/Информация : Advanced Audio Codec
Профиль формата : LC
Идентификатор кодека : 40
Продолжительность : 3 м. 48 с.
Вид битрейта : Переменный
Битрейт : 144 Кбит/сек
Максимальный битрейт : 176,4 Кбит/сек
Каналы : 2 канала
Расположение каналов : Front: L R
Частота : 44,1 КГц
Метод сжатия : С потерями
Размер потока : 3,97 Мбайт (3%)
Дата кодирования : UTC 2014-12-07 12:04:05
Дата пометки : UTC 2014-12-07 12:04:05
Общее
Полное имя : E:\VA - Зимний марафон № 149 (Новые Клипы Уходящего Года)\Виталька - Мама, Я Хочу Елочку (ПРЕМЬЕРА!).mp4
Формат : MPEG-4
Профиль формата : Base Media
Идентификатор кодека : isom
Размер файла : 140 Мбайт
Продолжительность : 4 м. 16 с.
Общий поток : 4561 Кбит/сек
Дата кодирования : UTC 2014-12-26 12:19:30
Дата пометки : UTC 2014-12-26 12:19:30
Программа кодирования : Lavf54.63.104

Видео
Идентификатор : 1
Формат : AVC
Формат/Информация : Advanced Video Codec
Профиль формата :
Параметр CABAC формата : Да
Параметр ReFrames формата : 1 кадр
Идентификатор кодека : avc1
Идентификатор кодека/Информация : Advanced Video Coding
Продолжительность : 4 м. 16 с.
Вид битрейта : Переменный
Битрейт : 4496 Кбит/сек
Ширина : 1920 пикс.
Высота : 1080 пикс.
Соотношение сторон : 16:9
Режим частоты кадров : Постоянный
Частота кадров : 25,000 кадр/сек
Цветовое пространство : YUV
Подвыборка цветности : 4:2:0
Битовая глубина : 8 бит
Тип развёртки : Прогрессивная
Бит/(Пиксели*Кадры) : 0.087
Размер потока : 135 Мбайт (97%)
Библиотека кодирования : x264 core 129
Настройки программы : cabac=1 / ref=1 / deblock=1:0:0 / analyse=0x1:0x131 / me=dia / subme=2 / psy=1 / psy_rd=1.00:0.00 / mixed_ref=0 / me_range=16 / chroma_me=1 / trellis=0 / 8x8dct=0 / cqm=0 / deadzone=21,11 / fast_pskip=1 / chroma_qp_offset=0 / threads=2 / lookahead_threads=1 / sliced_threads=0 / nr=0 / decimate=1 / interlaced=0 / bluray_compat=0 / constrained_intra=0 / bframes=0 / weightp=2 / keyint=250 / keyint_min=25 / scenecut=40 / intra_refresh=0 / rc_lookahead=40 / rc=abr / mbtree=1 / bitrate=4496 / ratetol=1.0 / qcomp=0.60 / qpmin=10 / qpmax=51 / qpstep=4 / ip_ratio=1.41 / aq=1:1.00
Дата кодирования : UTC 2014-12-26 12:19:30
Дата пометки : UTC 2014-12-26 12:19:30

Аудио
Идентификатор : 2
Формат : AAC
Формат/Информация : Advanced Audio Codec
Профиль формата : LC
Идентификатор кодека : 40
Продолжительность : 4 м. 16 с.
Вид битрейта : Переменный
Битрейт : 152 Кбит/сек
Максимальный битрейт : 176,4 Кбит/сек
Каналы : 2 канала
Расположение каналов : Front: L R
Частота : 44,1 КГц
Метод сжатия : С потерями
Размер потока : 4,65 Мбайт (3%)
Дата кодирования : UTC 2014-12-26 12:19:30
Дата пометки : UTC 2014-12-26 12:19:30
Общее
Полное имя : E:\VA - Зимний марафон № 149 (Новые Клипы Уходящего Года)\Григорий Лепс ft. Наталия Власова - Бай-бай (ПРЕМЬЕРА!).mp4
Формат : MPEG-4
Профиль формата : Base Media
Идентификатор кодека : isom
Размер файла : 107 Мбайт
Продолжительность : 3 м. 9 с.
Общий поток : 4725 Кбит/сек
Дата кодирования : UTC 2014-12-25 11:13:47
Дата пометки : UTC 2014-12-25 11:13:47
Программа кодирования : Lavf54.63.104

Видео
Идентификатор : 1
Формат : AVC
Формат/Информация : Advanced Video Codec
Профиль формата :
Параметр CABAC формата : Да
Параметр ReFrames формата : 1 кадр
Идентификатор кодека : avc1
Идентификатор кодека/Информация : Advanced Video Coding
Продолжительность : 3 м. 9 с.
Вид битрейта : Переменный
Битрейт : 4496 Кбит/сек
Ширина : 1920 пикс.
Высота : 1080 пикс.
Соотношение сторон : 16:9
Режим частоты кадров : Постоянный
Частота кадров : 25,000 кадр/сек
Цветовое пространство : YUV
Подвыборка цветности : 4:2:0
Битовая глубина : 8 бит
Тип развёртки : Прогрессивная
Бит/(Пиксели*Кадры) : 0.087
Размер потока : 103 Мбайт (97%)
Библиотека кодирования : x264 core 129
Настройки программы : cabac=1 / ref=1 / deblock=1:0:0 / analyse=0x1:0x131 / me=dia / subme=2 / psy=1 / psy_rd=1.00:0.00 / mixed_ref=0 / me_range=16 / chroma_me=1 / trellis=0 / 8x8dct=0 / cqm=0 / deadzone=21,11 / fast_pskip=1 / chroma_qp_offset=0 / threads=2 / lookahead_threads=1 / sliced_threads=0 / nr=0 / decimate=1 / interlaced=0 / bluray_compat=0 / constrained_intra=0 / bframes=0 / weightp=2 / keyint=250 / keyint_min=25 / scenecut=40 / intra_refresh=0 / rc_lookahead=40 / rc=abr / mbtree=1 / bitrate=4496 / ratetol=1.0 / qcomp=0.60 / qpmin=10 / qpmax=51 / qpstep=4 / ip_ratio=1.41 / aq=1:1.00
Дата кодирования : UTC 2014-12-25 11:13:47
Дата пометки : UTC 2014-12-25 11:13:47

Аудио
Идентификатор : 2
Формат : AAC
Формат/Информация : Advanced Audio Codec
Профиль формата : LC
Идентификатор кодека : 40
Продолжительность : 3 м. 9 с.
Вид битрейта : Переменный
Битрейт : 152 Кбит/сек
Максимальный битрейт : 176,4 Кбит/сек
Каналы : 2 канала
Расположение каналов : Front: L R
Частота : 44,1 КГц
Метод сжатия : С потерями
Размер потока : 3,44 Мбайт (3%)
Дата кодирования : UTC 2014-12-25 11:13:47
Дата пометки : UTC 2014-12-25 11:13:47
Общее
Полное имя : E:\VA - Зимний марафон № 149 (Новые Клипы Уходящего Года)\Джигурда - СантаДжигурда или Новогодний Джингурдэнс (ПРЕМЬЕРА!).mp4
Формат : MPEG-4
Профиль формата : Base Media
Идентификатор кодека : isom
Размер файла : 118 Мбайт
Продолжительность : 3 м. 32 с.
Общий поток : 4643 Кбит/сек
Дата кодирования : UTC 2014-01-13 07:58:35
Дата пометки : UTC 2014-01-13 07:58:35
Программа кодирования : Lavf54.63.104

Видео
Идентификатор : 1
Формат : AVC
Формат/Информация : Advanced Video Codec
Профиль формата :
Параметр CABAC формата : Да
Параметр ReFrames формата : 1 кадр
Идентификатор кодека : avc1
Идентификатор кодека/Информация : Advanced Video Coding
Продолжительность : 3 м. 32 с.
Вид битрейта : Переменный
Битрейт : 4496 Кбит/сек
Ширина : 1920 пикс.
Высота : 1080 пикс.
Соотношение сторон : 16:9
Режим частоты кадров : Постоянный
Частота кадров : 25,000 кадр/сек
Цветовое пространство : YUV
Подвыборка цветности : 4:2:0
Битовая глубина : 8 бит
Тип развёртки : Прогрессивная
Бит/(Пиксели*Кадры) : 0.087
Размер потока : 114 Мбайт (97%)
Библиотека кодирования : x264 core 129
Настройки программы : cabac=1 / ref=1 / deblock=1:0:0 / analyse=0x1:0x131 / me=dia / subme=2 / psy=1 / psy_rd=1.00:0.00 / mixed_ref=0 / me_range=16 / chroma_me=1 / trellis=0 / 8x8dct=0 / cqm=0 / deadzone=21,11 / fast_pskip=1 / chroma_qp_offset=0 / threads=2 / lookahead_threads=1 / sliced_threads=0 / nr=0 / decimate=1 / interlaced=0 / bluray_compat=0 / constrained_intra=0 / bframes=0 / weightp=2 / keyint=250 / keyint_min=25 / scenecut=40 / intra_refresh=0 / rc_lookahead=40 / rc=abr / mbtree=1 / bitrate=4496 / ratetol=1.0 / qcomp=0.60 / qpmin=10 / qpmax=51 / qpstep=4 / ip_ratio=1.41 / aq=1:1.00
Дата кодирования : UTC 2014-01-13 07:58:35
Дата пометки : UTC 2014-01-13 07:58:35

Аудио
Идентификатор : 2
Формат : AAC
Формат/Информация : Advanced Audio Codec
Профиль формата : LC
Идентификатор кодека : 40
Продолжительность : 3 м. 32 с.
Вид битрейта : Переменный
Битрейт : 150 Кбит/сек
Максимальный битрейт : 176,4 Кбит/сек
Каналы : 2 канала
Расположение каналов : Front: L R
Частота : 44,1 КГц
Метод сжатия : С потерями
Размер потока : 3,80 Мбайт (3%)
Дата кодирования : UTC 2014-01-13 07:58:35
Дата пометки : UTC 2014-01-13 07:58:35
Общее
Полное имя : E:\VA - Зимний марафон № 149 (Новые Клипы Уходящего Года)\Диля Даль и Даниил Иванов - Зима, зачем (ПРЕМЬЕРА!).mp4
Формат : MPEG-4
Профиль формата : Base Media
Идентификатор кодека : isom
Размер файла : 136 Мбайт
Продолжительность : 4 м. 2 с.
Общий поток : 4704 Кбит/сек
Дата кодирования : UTC 2014-12-15 11:48:18
Дата пометки : UTC 2014-12-15 11:48:18
Программа кодирования : Lavf54.63.104

Видео
Идентификатор : 1
Формат : AVC
Формат/Информация : Advanced Video Codec
Профиль формата :
Параметр CABAC формата : Да
Параметр ReFrames формата : 1 кадр
Идентификатор кодека : avc1
Идентификатор кодека/Информация : Advanced Video Coding
Продолжительность : 4 м. 2 с.
Вид битрейта : Переменный
Битрейт : 4496 Кбит/сек
Ширина : 1920 пикс.
Высота : 1080 пикс.
Соотношение сторон : 16:9
Режим частоты кадров : Постоянный
Частота кадров : 25,000 кадр/сек
Цветовое пространство : YUV
Подвыборка цветности : 4:2:0
Битовая глубина : 8 бит
Тип развёртки : Прогрессивная
Бит/(Пиксели*Кадры) : 0.087
Размер потока : 131 Мбайт (97%)
Библиотека кодирования : x264 core 129
Настройки программы : cabac=1 / ref=1 / deblock=1:0:0 / analyse=0x1:0x131 / me=dia / subme=2 / psy=1 / psy_rd=1.00:0.00 / mixed_ref=0 / me_range=16 / chroma_me=1 / trellis=0 / 8x8dct=0 / cqm=0 / deadzone=21,11 / fast_pskip=1 / chroma_qp_offset=0 / threads=2 / lookahead_threads=1 / sliced_threads=0 / nr=0 / decimate=1 / interlaced=0 / bluray_compat=0 / constrained_intra=0 / bframes=0 / weightp=2 / keyint=250 / keyint_min=25 / scenecut=40 / intra_refresh=0 / rc_lookahead=40 / rc=abr / mbtree=1 / bitrate=4496 / ratetol=1.0 / qcomp=0.60 / qpmin=10 / qpmax=51 / qpstep=4 / ip_ratio=1.41 / aq=1:1.00
Дата кодирования : UTC 2014-12-15 11:48:18
Дата пометки : UTC 2014-12-15 11:48:18

Аудио
Идентификатор : 2
Формат : AAC
Формат/Информация : Advanced Audio Codec
Профиль формата : LC
Идентификатор кодека : 40
Продолжительность : 4 м. 2 с.
Вид битрейта : Переменный
Битрейт : 152 Кбит/сек
Максимальный битрейт : 176,4 Кбит/сек
Каналы : 2 канала
Расположение каналов : Front: L R
Частота : 44,1 КГц
Метод сжатия : С потерями
Размер потока : 4,39 Мбайт (3%)
Дата кодирования : UTC 2014-12-15 11:48:18
Дата пометки : UTC 2014-12-15 11:48:18
Общее
Полное имя : E:\VA - Зимний марафон № 149 (Новые Клипы Уходящего Года)\Дима Билан - Когда растает лед (саундтрек к шоу 'Снежный король').mp4
Формат : MPEG-4
Профиль формата : Base Media
Идентификатор кодека : isom
Размер файла : 137 Мбайт
Продолжительность : 4 м. 2 с.
Общий поток : 4728 Кбит/сек
Дата кодирования : UTC 2014-12-24 13:25:01
Дата пометки : UTC 2014-12-24 13:25:01
Программа кодирования : Lavf54.63.104

Видео
Идентификатор : 1
Формат : AVC
Формат/Информация : Advanced Video Codec
Профиль формата :
Параметр CABAC формата : Да
Параметр ReFrames формата : 1 кадр
Идентификатор кодека : avc1
Идентификатор кодека/Информация : Advanced Video Coding
Продолжительность : 4 м. 2 с.
Вид битрейта : Переменный
Битрейт : 4496 Кбит/сек
Ширина : 1920 пикс.
Высота : 1080 пикс.
Соотношение сторон : 16:9
Режим частоты кадров : Постоянный
Частота кадров : 25,000 кадр/сек
Цветовое пространство : YUV
Подвыборка цветности : 4:2:0
Битовая глубина : 8 бит
Тип развёртки : Прогрессивная
Бит/(Пиксели*Кадры) : 0.087
Размер потока : 132 Мбайт (97%)
Библиотека кодирования : x264 core 129
Настройки программы : cabac=1 / ref=1 / deblock=1:0:0 / analyse=0x1:0x131 / me=dia / subme=2 / psy=1 / psy_rd=1.00:0.00 / mixed_ref=0 / me_range=16 / chroma_me=1 / trellis=0 / 8x8dct=0 / cqm=0 / deadzone=21,11 / fast_pskip=1 / chroma_qp_offset=0 / threads=2 / lookahead_threads=1 / sliced_threads=0 / nr=0 / decimate=1 / interlaced=0 / bluray_compat=0 / constrained_intra=0 / bframes=0 / weightp=2 / keyint=250 / keyint_min=25 / scenecut=40 / intra_refresh=0 / rc_lookahead=40 / rc=abr / mbtree=1 / bitrate=4496 / ratetol=1.0 / qcomp=0.60 / qpmin=10 / qpmax=51 / qpstep=4 / ip_ratio=1.41 / aq=1:1.00
Дата кодирования : UTC 2014-12-24 13:25:01
Дата пометки : UTC 2014-12-24 13:25:01

Аудио
Идентификатор : 2
Формат : AAC
Формат/Информация : Advanced Audio Codec
Профиль формата : LC
Идентификатор кодека : 40
Продолжительность : 4 м. 2 с.
Вид битрейта : Переменный
Битрейт : 152 Кбит/сек
Максимальный битрейт : 176,4 Кбит/сек
Каналы : 2 канала
Расположение каналов : Front: L R
Частота : 44,1 КГц
Метод сжатия : С потерями
Размер потока : 4,40 Мбайт (3%)
Дата кодирования : UTC 2014-12-24 13:25:01
Дата пометки : UTC 2014-12-24 13:25:01
Общее
Полное имя : E:\VA - Зимний марафон № 149 (Новые Клипы Уходящего Года)\Елена Максимова - Наш первый новый год (ПРЕМЬЕРА!).mp4
Формат : MPEG-4
Профиль формата : Base Media
Идентификатор кодека : isom
Размер файла : 158 Мбайт
Продолжительность : 4 м. 44 с.
Общий поток : 4673 Кбит/сек
Дата кодирования : UTC 2014-12-20 10:11:42
Дата пометки : UTC 2014-12-20 10:11:42
Программа кодирования : Lavf54.63.104

Видео
Идентификатор : 1
Формат : AVC
Формат/Информация : Advanced Video Codec
Профиль формата :
Параметр CABAC формата : Да
Параметр ReFrames формата : 1 кадр
Идентификатор кодека : avc1
Идентификатор кодека/Информация : Advanced Video Coding
Продолжительность : 4 м. 44 с.
Вид битрейта : Переменный
Битрейт : 4496 Кбит/сек
Ширина : 1920 пикс.
Высота : 1080 пикс.
Соотношение сторон : 16:9
Режим частоты кадров : Постоянный
Частота кадров : 25,000 кадр/сек
Цветовое пространство : YUV
Подвыборка цветности : 4:2:0
Битовая глубина : 8 бит
Тип развёртки : Прогрессивная
Бит/(Пиксели*Кадры) : 0.087
Размер потока : 153 Мбайт (97%)
Библиотека кодирования : x264 core 129
Настройки программы : cabac=1 / ref=1 / deblock=1:0:0 / analyse=0x1:0x131 / me=dia / subme=2 / psy=1 / psy_rd=1.00:0.00 / mixed_ref=0 / me_range=16 / chroma_me=1 / trellis=0 / 8x8dct=0 / cqm=0 / deadzone=21,11 / fast_pskip=1 / chroma_qp_offset=0 / threads=2 / lookahead_threads=1 / sliced_threads=0 / nr=0 / decimate=1 / interlaced=0 / bluray_compat=0 / constrained_intra=0 / bframes=0 / weightp=2 / keyint=250 / keyint_min=25 / scenecut=40 / intra_refresh=0 / rc_lookahead=40 / rc=abr / mbtree=1 / bitrate=4496 / ratetol=1.0 / qcomp=0.60 / qpmin=10 / qpmax=51 / qpstep=4 / ip_ratio=1.41 / aq=1:1.00
Дата кодирования : UTC 2014-12-20 10:11:42
Дата пометки : UTC 2014-12-20 10:11:42

Аудио
Идентификатор : 2
Формат : AAC
Формат/Информация : Advanced Audio Codec
Профиль формата : LC
Идентификатор кодека : 40
Продолжительность : 4 м. 44 с.
Вид битрейта : Переменный
Битрейт : 151 Кбит/сек
Максимальный битрейт : 176,4 Кбит/сек
Каналы : 2 канала
Расположение каналов : Front: L R
Частота : 44,1 КГц
Метод сжатия : С потерями
Размер потока : 5,11 Мбайт (3%)
Дата кодирования : UTC 2014-12-20 10:11:42
Дата пометки : UTC 2014-12-20 10:11:42
Общее
Полное имя : E:\VA - Зимний марафон № 149 (Новые Клипы Уходящего Года)\Ленинград — Никола (ПРЕМЬЕРА!).mp4
Формат : MPEG-4
Профиль формата : Base Media
Идентификатор кодека : isom
Размер файла : 154 Мбайт
Продолжительность : 4 м. 41 с.
Общий поток : 4597 Кбит/сек
Дата кодирования : UTC 2014-12-24 11:07:01
Дата пометки : UTC 2014-12-24 11:07:01
Программа кодирования : Lavf54.63.104

Видео
Идентификатор : 1
Формат : AVC
Формат/Информация : Advanced Video Codec
Профиль формата :
Параметр CABAC формата : Да
Параметр ReFrames формата : 1 кадр
Идентификатор кодека : avc1
Идентификатор кодека/Информация : Advanced Video Coding
Продолжительность : 4 м. 41 с.
Вид битрейта : Переменный
Битрейт : 4496 Кбит/сек
Ширина : 1920 пикс.
Высота : 1080 пикс.
Соотношение сторон : 16:9
Режим частоты кадров : Постоянный
Частота кадров : 25,000 кадр/сек
Цветовое пространство : YUV
Подвыборка цветности : 4:2:0
Битовая глубина : 8 бит
Тип развёртки : Прогрессивная
Бит/(Пиксели*Кадры) : 0.087
Размер потока : 149 Мбайт (97%)
Библиотека кодирования : x264 core 129
Настройки программы : cabac=1 / ref=1 / deblock=1:0:0 / analyse=0x1:0x131 / me=dia / subme=2 / psy=1 / psy_rd=1.00:0.00 / mixed_ref=0 / me_range=16 / chroma_me=1 / trellis=0 / 8x8dct=0 / cqm=0 / deadzone=21,11 / fast_pskip=1 / chroma_qp_offset=0 / threads=2 / lookahead_threads=1 / sliced_threads=0 / nr=0 / decimate=1 / interlaced=0 / bluray_compat=0 / constrained_intra=0 / bframes=0 / weightp=2 / keyint=250 / keyint_min=25 / scenecut=40 / intra_refresh=0 / rc_lookahead=40 / rc=abr / mbtree=1 / bitrate=4496 / ratetol=1.0 / qcomp=0.60 / qpmin=10 / qpmax=51 / qpstep=4 / ip_ratio=1.41 / aq=1:1.00
Дата кодирования : UTC 2014-12-24 11:07:01
Дата пометки : UTC 2014-12-24 11:07:01

Аудио
Идентификатор : 2
Формат : AAC
Формат/Информация : Advanced Audio Codec
Профиль формата : LC
Идентификатор кодека : 40
Продолжительность : 4 м. 41 с.
Вид битрейта : Переменный
Битрейт : 152 Кбит/сек
Максимальный битрейт : 176,4 Кбит/сек
Каналы : 2 канала
Расположение каналов : Front: L R
Частота : 44,1 КГц
Метод сжатия : С потерями
Размер потока : 5,09 Мбайт (3%)
Дата кодирования : UTC 2014-12-24 11:07:01
Дата пометки : UTC 2014-12-24 11:07:01
Общее
Полное имя : E:\VA - Зимний марафон № 149 (Новые Клипы Уходящего Года)\Лера Туманова - Новогодняя (ПРЕМЬЕРА!).mp4
Формат : MPEG-4
Профиль формата : Base Media
Идентификатор кодека : isom
Размер файла : 104 Мбайт
Продолжительность : 3 м. 8 с.
Общий поток : 4636 Кбит/сек
Дата кодирования : UTC 2014-01-07 00:37:45
Дата пометки : UTC 2014-01-07 00:37:45
Программа кодирования : Lavf54.63.104

Видео
Идентификатор : 1
Формат : AVC
Формат/Информация : Advanced Video Codec
Профиль формата :
Параметр CABAC формата : Да
Параметр ReFrames формата : 1 кадр
Идентификатор кодека : avc1
Идентификатор кодека/Информация : Advanced Video Coding
Продолжительность : 3 м. 8 с.
Вид битрейта : Переменный
Битрейт : 4496 Кбит/сек
Ширина : 1920 пикс.
Высота : 1080 пикс.
Соотношение сторон : 16:9
Режим частоты кадров : Постоянный
Частота кадров : 25,000 кадр/сек
Цветовое пространство : YUV
Подвыборка цветности : 4:2:0
Битовая глубина : 8 бит
Тип развёртки : Прогрессивная
Бит/(Пиксели*Кадры) : 0.087
Размер потока : 101 Мбайт (97%)
Библиотека кодирования : x264 core 129
Настройки программы : cabac=1 / ref=1 / deblock=1:0:0 / analyse=0x1:0x131 / me=dia / subme=2 / psy=1 / psy_rd=1.00:0.00 / mixed_ref=0 / me_range=16 / chroma_me=1 / trellis=0 / 8x8dct=0 / cqm=0 / deadzone=21,11 / fast_pskip=1 / chroma_qp_offset=0 / threads=2 / lookahead_threads=1 / sliced_threads=0 / nr=0 / decimate=1 / interlaced=0 / bluray_compat=0 / constrained_intra=0 / bframes=0 / weightp=2 / keyint=250 / keyint_min=25 / scenecut=40 / intra_refresh=0 / rc_lookahead=40 / rc=abr / mbtree=1 / bitrate=4496 / ratetol=1.0 / qcomp=0.60 / qpmin=10 / qpmax=51 / qpstep=4 / ip_ratio=1.41 / aq=1:1.00
Дата кодирования : UTC 2014-01-07 00:37:45
Дата пометки : UTC 2014-01-07 00:37:45

Аудио
Идентификатор : 2
Формат : AAC
Формат/Информация : Advanced Audio Codec
Профиль формата : LC
Идентификатор кодека : 40
Продолжительность : 3 м. 8 с.
Вид битрейта : Переменный
Битрейт : 152 Кбит/сек
Максимальный битрейт : 176,4 Кбит/сек
Каналы : 2 канала
Расположение каналов : Front: L R
Частота : 44,1 КГц
Метод сжатия : С потерями
Размер потока : 3,41 Мбайт (3%)
Дата кодирования : UTC 2014-01-07 00:37:45
Дата пометки : UTC 2014-01-07 00:37:45
Общее
Полное имя : E:\VA - Зимний марафон № 149 (Новые Клипы Уходящего Года)\Лоя - Снежинки (ПРЕМЬЕРА!).mp4
Формат : MPEG-4
Профиль формата : Base Media
Идентификатор кодека : isom
Размер файла : 129 Мбайт
Продолжительность : 3 м. 59 с.
Общий поток : 4528 Кбит/сек
Дата кодирования : UTC 2014-12-16 11:50:09
Дата пометки : UTC 2014-12-16 11:50:09
Программа кодирования : Lavf54.63.104

Видео
Идентификатор : 1
Формат : AVC
Формат/Информация : Advanced Video Codec
Профиль формата :
Параметр CABAC формата : Да
Параметр ReFrames формата : 1 кадр
Идентификатор кодека : avc1
Идентификатор кодека/Информация : Advanced Video Coding
Продолжительность : 3 м. 59 с.
Вид битрейта : Переменный
Битрейт : 4496 Кбит/сек
Ширина : 1920 пикс.
Высота : 1080 пикс.
Соотношение сторон : 16:9
Режим частоты кадров : Постоянный
Частота кадров : 25,000 кадр/сек
Цветовое пространство : YUV
Подвыборка цветности : 4:2:0
Битовая глубина : 8 бит
Тип развёртки : Прогрессивная
Бит/(Пиксели*Кадры) : 0.087
Размер потока : 125 Мбайт (97%)
Библиотека кодирования : x264 core 129
Настройки программы : cabac=1 / ref=1 / deblock=1:0:0 / analyse=0x1:0x131 / me=dia / subme=2 / psy=1 / psy_rd=1.00:0.00 / mixed_ref=0 / me_range=16 / chroma_me=1 / trellis=0 / 8x8dct=0 / cqm=0 / deadzone=21,11 / fast_pskip=1 / chroma_qp_offset=0 / threads=2 / lookahead_threads=1 / sliced_threads=0 / nr=0 / decimate=1 / interlaced=0 / bluray_compat=0 / constrained_intra=0 / bframes=0 / weightp=2 / keyint=250 / keyint_min=25 / scenecut=40 / intra_refresh=0 / rc_lookahead=40 / rc=abr / mbtree=1 / bitrate=4496 / ratetol=1.0 / qcomp=0.60 / qpmin=10 / qpmax=51 / qpstep=4 / ip_ratio=1.41 / aq=1:1.00
Дата кодирования : UTC 2014-12-16 11:50:09
Дата пометки : UTC 2014-12-16 11:50:09

Аудио
Идентификатор : 2
Формат : AAC
Формат/Информация : Advanced Audio Codec
Профиль формата : LC
Идентификатор кодека : 40
Продолжительность : 3 м. 59 с.
Вид битрейта : Переменный
Битрейт : 152 Кбит/сек
Максимальный битрейт : 176,4 Кбит/сек
Каналы : 2 канала
Расположение каналов : Front: L R
Частота : 44,1 КГц
Метод сжатия : С потерями
Размер потока : 4,33 Мбайт (3%)
Дата кодирования : UTC 2014-12-16 11:50:09
Дата пометки : UTC 2014-12-16 11:50:09
Общее
Полное имя : E:\VA - Зимний марафон № 149 (Новые Клипы Уходящего Года)\Натали - Новогодняя (ПРЕМЬЕРА!).mp4
Формат : MPEG-4
Профиль формата : Base Media
Идентификатор кодека : isom
Размер файла : 125 Мбайт
Продолжительность : 3 м. 42 с.
Общий поток : 4709 Кбит/сек
Дата кодирования : UTC 2014-12-21 19:09:47
Дата пометки : UTC 2014-12-21 19:09:47
Программа кодирования : Lavf54.63.104

Видео
Идентификатор : 1
Формат : AVC
Формат/Информация : Advanced Video Codec
Профиль формата :
Параметр CABAC формата : Да
Параметр ReFrames формата : 1 кадр
Идентификатор кодека : avc1
Идентификатор кодека/Информация : Advanced Video Coding
Продолжительность : 3 м. 42 с.
Вид битрейта : Переменный
Битрейт : 4496 Кбит/сек
Ширина : 1920 пикс.
Высота : 1080 пикс.
Соотношение сторон : 16:9
Режим частоты кадров : Постоянный
Частота кадров : 25,000 кадр/сек
Цветовое пространство : YUV
Подвыборка цветности : 4:2:0
Битовая глубина : 8 бит
Тип развёртки : Прогрессивная
Бит/(Пиксели*Кадры) : 0.087
Размер потока : 121 Мбайт (97%)
Библиотека кодирования : x264 core 129
Настройки программы : cabac=1 / ref=1 / deblock=1:0:0 / analyse=0x1:0x131 / me=dia / subme=2 / psy=1 / psy_rd=1.00:0.00 / mixed_ref=0 / me_range=16 / chroma_me=1 / trellis=0 / 8x8dct=0 / cqm=0 / deadzone=21,11 / fast_pskip=1 / chroma_qp_offset=0 / threads=2 / lookahead_threads=1 / sliced_threads=0 / nr=0 / decimate=1 / interlaced=0 / bluray_compat=0 / constrained_intra=0 / bframes=0 / weightp=2 / keyint=250 / keyint_min=25 / scenecut=40 / intra_refresh=0 / rc_lookahead=40 / rc=abr / mbtree=1 / bitrate=4496 / ratetol=1.0 / qcomp=0.60 / qpmin=10 / qpmax=51 / qpstep=4 / ip_ratio=1.41 / aq=1:1.00
Дата кодирования : UTC 2014-12-21 19:09:47
Дата пометки : UTC 2014-12-21 19:09:47

Аудио
Идентификатор : 2
Формат : AAC
Формат/Информация : Advanced Audio Codec
Профиль формата : LC
Идентификатор кодека : 40
Продолжительность : 3 м. 42 с.
Вид битрейта : Переменный
Битрейт : 152 Кбит/сек
Максимальный битрейт : 176,4 Кбит/сек
Каналы : 2 канала
Расположение каналов : Front: L R
Частота : 44,1 КГц
Метод сжатия : С потерями
Размер потока : 4,02 Мбайт (3%)
Дата кодирования : UTC 2014-12-21 19:09:47
Дата пометки : UTC 2014-12-21 19:09:47
Общее
Полное имя : E:\VA - Зимний марафон № 149 (Новые Клипы Уходящего Года)\Николай Тимофеев - С Новым Годом! (ПРЕМЬЕРА!).mp4
Формат : MPEG-4
Профиль формата : Base Media
Идентификатор кодека : isom
Размер файла : 126 Мбайт
Продолжительность : 3 м. 48 с.
Общий поток : 4615 Кбит/сек
Дата кодирования : UTC 2013-12-18 22:41:13
Дата пометки : UTC 2013-12-18 22:41:13
Программа кодирования : Lavf54.63.104

Видео
Идентификатор : 1
Формат : AVC
Формат/Информация : Advanced Video Codec
Профиль формата :
Параметр CABAC формата : Да
Параметр ReFrames формата : 1 кадр
Идентификатор кодека : avc1
Идентификатор кодека/Информация : Advanced Video Coding
Продолжительность : 3 м. 48 с.
Вид битрейта : Переменный
Битрейт : 4496 Кбит/сек
Ширина : 1920 пикс.
Высота : 1080 пикс.
Соотношение сторон : 16:9
Режим частоты кадров : Постоянный
Частота кадров : 25,000 кадр/сек
Цветовое пространство : YUV
Подвыборка цветности : 4:2:0
Битовая глубина : 8 бит
Тип развёртки : Прогрессивная
Бит/(Пиксели*Кадры) : 0.087
Размер потока : 122 Мбайт (97%)
Библиотека кодирования : x264 core 129
Настройки программы : cabac=1 / ref=1 / deblock=1:0:0 / analyse=0x1:0x131 / me=dia / subme=2 / psy=1 / psy_rd=1.00:0.00 / mixed_ref=0 / me_range=16 / chroma_me=1 / trellis=0 / 8x8dct=0 / cqm=0 / deadzone=21,11 / fast_pskip=1 / chroma_qp_offset=0 / threads=2 / lookahead_threads=1 / sliced_threads=0 / nr=0 / decimate=1 / interlaced=0 / bluray_compat=0 / constrained_intra=0 / bframes=0 / weightp=2 / keyint=250 / keyint_min=25 / scenecut=40 / intra_refresh=0 / rc_lookahead=40 / rc=abr / mbtree=1 / bitrate=4496 / ratetol=1.0 / qcomp=0.60 / qpmin=10 / qpmax=51 / qpstep=4 / ip_ratio=1.41 / aq=1:1.00
Дата кодирования : UTC 2013-12-18 22:41:13
Дата пометки : UTC 2013-12-18 22:41:13

Аудио
Идентификатор : 2
Формат : AAC
Формат/Информация : Advanced Audio Codec
Профиль формата : LC
Идентификатор кодека : 40
Продолжительность : 3 м. 48 с.
Вид битрейта : Переменный
Битрейт : 152 Кбит/сек
Максимальный битрейт : 176,4 Кбит/сек
Каналы : 2 канала
Расположение каналов : Front: L R
Частота : 44,1 КГц
Метод сжатия : С потерями
Размер потока : 4,15 Мбайт (3%)
Дата кодирования : UTC 2013-12-18 22:41:13
Дата пометки : UTC 2013-12-18 22:41:13
Общее
Полное имя : E:\VA - Зимний марафон № 149 (Новые Клипы Уходящего Года)\Нэнси - Новогодняя (ПРЕМЬЕРА!).mp4
Формат : MPEG-4
Профиль формата : Base Media
Идентификатор кодека : isom
Размер файла : 203 Мбайт
Продолжительность : 6 м. 7 с.
Общий поток : 4624 Кбит/сек
Дата кодирования : UTC 2014-06-12 01:44:40
Дата пометки : UTC 2014-06-12 01:44:40
Программа кодирования : Lavf54.63.104

Видео
Идентификатор : 1
Формат : AVC
Формат/Информация : Advanced Video Codec
Профиль формата :
Параметр CABAC формата : Да
Параметр ReFrames формата : 1 кадр
Идентификатор кодека : avc1
Идентификатор кодека/Информация : Advanced Video Coding
Продолжительность : 6 м. 7 с.
Вид битрейта : Переменный
Битрейт : 4496 Кбит/сек
Ширина : 1920 пикс.
Высота : 1080 пикс.
Соотношение сторон : 16:9
Режим частоты кадров : Постоянный
Частота кадров : 25,000 кадр/сек
Цветовое пространство : YUV
Подвыборка цветности : 4:2:0
Битовая глубина : 8 бит
Тип развёртки : Прогрессивная
Бит/(Пиксели*Кадры) : 0.087
Размер потока : 196 Мбайт (97%)
Библиотека кодирования : x264 core 129
Настройки программы : cabac=1 / ref=1 / deblock=1:0:0 / analyse=0x1:0x131 / me=dia / subme=2 / psy=1 / psy_rd=1.00:0.00 / mixed_ref=0 / me_range=16 / chroma_me=1 / trellis=0 / 8x8dct=0 / cqm=0 / deadzone=21,11 / fast_pskip=1 / chroma_qp_offset=0 / threads=2 / lookahead_threads=1 / sliced_threads=0 / nr=0 / decimate=1 / interlaced=0 / bluray_compat=0 / constrained_intra=0 / bframes=0 / weightp=2 / keyint=250 / keyint_min=25 / scenecut=40 / intra_refresh=0 / rc_lookahead=40 / rc=abr / mbtree=1 / bitrate=4496 / ratetol=1.0 / qcomp=0.60 / qpmin=10 / qpmax=51 / qpstep=4 / ip_ratio=1.41 / aq=1:1.00
Дата кодирования : UTC 2014-06-12 01:44:40
Дата пометки : UTC 2014-06-12 01:44:40

Аудио
Идентификатор : 2
Формат : AAC
Формат/Информация : Advanced Audio Codec
Профиль формата : LC
Идентификатор кодека : 40
Продолжительность : 6 м. 7 с.
Вид битрейта : Переменный
Битрейт : 148 Кбит/сек
Максимальный битрейт : 176,4 Кбит/сек
Каналы : 2 канала
Расположение каналов : Front: L R
Частота : 44,1 КГц
Метод сжатия : С потерями
Размер потока : 6,48 Мбайт (3%)
Дата кодирования : UTC 2014-06-12 01:44:40
Дата пометки : UTC 2014-06-12 01:44:40
Общее
Полное имя : E:\VA - Зимний марафон № 149 (Новые Клипы Уходящего Года)\Ольга Горбачева - Снег (ПРЕМЬЕРА!).mp4
Формат : MPEG-4
Профиль формата : Base Media
Идентификатор кодека : isom
Размер файла : 108 Мбайт
Продолжительность : 3 м. 13 с.
Общий поток : 4699 Кбит/сек
Дата кодирования : UTC 2014-12-22 18:27:51
Дата пометки : UTC 2014-12-22 18:27:51
Программа кодирования : Lavf54.63.104

Видео
Идентификатор : 1
Формат : AVC
Формат/Информация : Advanced Video Codec
Профиль формата :
Параметр CABAC формата : Да
Параметр ReFrames формата : 1 кадр
Идентификатор кодека : avc1
Идентификатор кодека/Информация : Advanced Video Coding
Продолжительность : 3 м. 13 с.
Вид битрейта : Переменный
Битрейт : 4496 Кбит/сек
Ширина : 1920 пикс.
Высота : 1080 пикс.
Соотношение сторон : 16:9
Режим частоты кадров : Постоянный
Частота кадров : 25,000 кадр/сек
Цветовое пространство : YUV
Подвыборка цветности : 4:2:0
Битовая глубина : 8 бит
Тип развёртки : Прогрессивная
Бит/(Пиксели*Кадры) : 0.087
Размер потока : 105 Мбайт (97%)
Библиотека кодирования : x264 core 129
Настройки программы : cabac=1 / ref=1 / deblock=1:0:0 / analyse=0x1:0x131 / me=dia / subme=2 / psy=1 / psy_rd=1.00:0.00 / mixed_ref=0 / me_range=16 / chroma_me=1 / trellis=0 / 8x8dct=0 / cqm=0 / deadzone=21,11 / fast_pskip=1 / chroma_qp_offset=0 / threads=2 / lookahead_threads=1 / sliced_threads=0 / nr=0 / decimate=1 / interlaced=0 / bluray_compat=0 / constrained_intra=0 / bframes=0 / weightp=2 / keyint=250 / keyint_min=25 / scenecut=40 / intra_refresh=0 / rc_lookahead=40 / rc=abr / mbtree=1 / bitrate=4496 / ratetol=1.0 / qcomp=0.60 / qpmin=10 / qpmax=51 / qpstep=4 / ip_ratio=1.41 / aq=1:1.00
Дата кодирования : UTC 2014-12-22 18:27:51
Дата пометки : UTC 2014-12-22 18:27:51

Аудио
Идентификатор : 2
Формат : AAC
Формат/Информация : Advanced Audio Codec
Профиль формата : LC
Идентификатор кодека : 40
Продолжительность : 3 м. 13 с.
Вид битрейта : Переменный
Битрейт : 148 Кбит/сек
Максимальный битрейт : 176,4 Кбит/сек
Каналы : 2 канала
Расположение каналов : Front: L R
Частота : 44,1 КГц
Метод сжатия : С потерями
Размер потока : 3,42 Мбайт (3%)
Дата кодирования : UTC 2014-12-22 18:27:51
Дата пометки : UTC 2014-12-22 18:27:51
Общее
Полное имя : E:\VA - Зимний марафон № 149 (Новые Клипы Уходящего Года)\Оля Полякова - С Новым Годом! (ПРЕМЬЕРА!).mp4
Формат : MPEG-4
Профиль формата : Base Media
Идентификатор кодека : isom
Размер файла : 125 Мбайт
Продолжительность : 3 м. 40 с.
Общий поток : 4741 Кбит/сек
Дата кодирования : UTC 2014-12-25 19:07:48
Дата пометки : UTC 2014-12-25 19:07:48
Программа кодирования : Lavf54.63.104

Видео
Идентификатор : 1
Формат : AVC
Формат/Информация : Advanced Video Codec
Профиль формата :
Параметр CABAC формата : Да
Параметр ReFrames формата : 1 кадр
Идентификатор кодека : avc1
Идентификатор кодека/Информация : Advanced Video Coding
Продолжительность : 3 м. 40 с.
Вид битрейта : Переменный
Битрейт : 4496 Кбит/сек
Ширина : 1920 пикс.
Высота : 1080 пикс.
Соотношение сторон : 16:9
Режим частоты кадров : Постоянный
Частота кадров : 25,000 кадр/сек
Цветовое пространство : YUV
Подвыборка цветности : 4:2:0
Битовая глубина : 8 бит
Тип развёртки : Прогрессивная
Бит/(Пиксели*Кадры) : 0.087
Размер потока : 121 Мбайт (97%)
Библиотека кодирования : x264 core 129
Настройки программы : cabac=1 / ref=1 / deblock=1:0:0 / analyse=0x1:0x131 / me=dia / subme=2 / psy=1 / psy_rd=1.00:0.00 / mixed_ref=0 / me_range=16 / chroma_me=1 / trellis=0 / 8x8dct=0 / cqm=0 / deadzone=21,11 / fast_pskip=1 / chroma_qp_offset=0 / threads=2 / lookahead_threads=1 / sliced_threads=0 / nr=0 / decimate=1 / interlaced=0 / bluray_compat=0 / constrained_intra=0 / bframes=0 / weightp=2 / keyint=250 / keyint_min=25 / scenecut=40 / intra_refresh=0 / rc_lookahead=40 / rc=abr / mbtree=1 / bitrate=4496 / ratetol=1.0 / qcomp=0.60 / qpmin=10 / qpmax=51 / qpstep=4 / ip_ratio=1.41 / aq=1:1.00
Дата кодирования : UTC 2014-12-25 19:07:48
Дата пометки : UTC 2014-12-25 19:07:48

Аудио
Идентификатор : 2
Формат : AAC
Формат/Информация : Advanced Audio Codec
Профиль формата : LC
Идентификатор кодека : 40
Продолжительность : 3 м. 40 с.
Вид битрейта : Переменный
Битрейт : 152 Кбит/сек
Максимальный битрейт : 176,4 Кбит/сек
Каналы : 2 канала
Расположение каналов : Front: L R
Частота : 44,1 КГц
Метод сжатия : С потерями
Размер потока : 4,00 Мбайт (3%)
Дата кодирования : UTC 2014-12-25 19:07:48
Дата пометки : UTC 2014-12-25 19:07:48
Общее
Полное имя : E:\VA - Зимний марафон № 149 (Новые Клипы Уходящего Года)\Сабина Нэльс - Холод (ПРЕМЬЕРА!).mp4
Формат : MPEG-4
Профиль формата : Base Media
Идентификатор кодека : isom
Размер файла : 104 Мбайт
Продолжительность : 3 м. 6 с.
Общий поток : 4659 Кбит/сек
Дата кодирования : UTC 2014-12-05 10:07:46
Дата пометки : UTC 2014-12-05 10:07:46
Программа кодирования : Lavf54.63.104

Видео
Идентификатор : 1
Формат : AVC
Формат/Информация : Advanced Video Codec
Профиль формата :
Параметр CABAC формата : Да
Параметр ReFrames формата : 1 кадр
Идентификатор кодека : avc1
Идентификатор кодека/Информация : Advanced Video Coding
Продолжительность : 3 м. 6 с.
Вид битрейта : Переменный
Битрейт : 4496 Кбит/сек
Ширина : 1920 пикс.
Высота : 1080 пикс.
Соотношение сторон : 16:9
Режим частоты кадров : Постоянный
Частота кадров : 25,000 кадр/сек
Цветовое пространство : YUV
Подвыборка цветности : 4:2:0
Битовая глубина : 8 бит
Тип развёртки : Прогрессивная
Бит/(Пиксели*Кадры) : 0.087
Размер потока : 100 Мбайт (97%)
Библиотека кодирования : x264 core 129
Настройки программы : cabac=1 / ref=1 / deblock=1:0:0 / analyse=0x1:0x131 / me=dia / subme=2 / psy=1 / psy_rd=1.00:0.00 / mixed_ref=0 / me_range=16 / chroma_me=1 / trellis=0 / 8x8dct=0 / cqm=0 / deadzone=21,11 / fast_pskip=1 / chroma_qp_offset=0 / threads=2 / lookahead_threads=1 / sliced_threads=0 / nr=0 / decimate=1 / interlaced=0 / bluray_compat=0 / constrained_intra=0 / bframes=0 / weightp=2 / keyint=250 / keyint_min=25 / scenecut=40 / intra_refresh=0 / rc_lookahead=40 / rc=abr / mbtree=1 / bitrate=4496 / ratetol=1.0 / qcomp=0.60 / qpmin=10 / qpmax=51 / qpstep=4 / ip_ratio=1.41 / aq=1:1.00
Дата кодирования : UTC 2014-12-05 10:07:46
Дата пометки : UTC 2014-12-05 10:07:46

Аудио
Идентификатор : 2
Формат : AAC
Формат/Информация : Advanced Audio Codec
Профиль формата : LC
Идентификатор кодека : 40
Продолжительность : 3 м. 6 с.
Вид битрейта : Переменный
Битрейт : 152 Кбит/сек
Максимальный битрейт : 176,4 Кбит/сек
Каналы : 2 канала
Расположение каналов : Front: L R
Частота : 44,1 КГц
Метод сжатия : С потерями
Размер потока : 3,39 Мбайт (3%)
Дата кодирования : UTC 2014-12-05 10:07:46
Дата пометки : UTC 2014-12-05 10:07:46
Общее
Полное имя : E:\VA - Зимний марафон № 149 (Новые Клипы Уходящего Года)\Слава & Dенис Клявер - Рождественская ночь (ПРЕМЬЕРА!).mp4
Формат : MPEG-4
Профиль формата : Base Media
Идентификатор кодека : isom
Размер файла : 150 Мбайт
Продолжительность : 4 м. 33 с.
Общий поток : 4623 Кбит/сек
Дата кодирования : UTC 2014-12-16 08:30:05
Дата пометки : UTC 2014-12-16 08:30:05
Программа кодирования : Lavf54.63.104

Видео
Идентификатор : 1
Формат : AVC
Формат/Информация : Advanced Video Codec
Профиль формата :
Параметр CABAC формата : Да
Параметр ReFrames формата : 1 кадр
Идентификатор кодека : avc1
Идентификатор кодека/Информация : Advanced Video Coding
Продолжительность : 4 м. 33 с.
Вид битрейта : Переменный
Битрейт : 4496 Кбит/сек
Ширина : 1920 пикс.
Высота : 1080 пикс.
Соотношение сторон : 16:9
Режим частоты кадров : Постоянный
Частота кадров : 25,000 кадр/сек
Цветовое пространство : YUV
Подвыборка цветности : 4:2:0
Битовая глубина : 8 бит
Тип развёртки : Прогрессивная
Бит/(Пиксели*Кадры) : 0.087
Размер потока : 145 Мбайт (97%)
Библиотека кодирования : x264 core 129
Настройки программы : cabac=1 / ref=1 / deblock=1:0:0 / analyse=0x1:0x131 / me=dia / subme=2 / psy=1 / psy_rd=1.00:0.00 / mixed_ref=0 / me_range=16 / chroma_me=1 / trellis=0 / 8x8dct=0 / cqm=0 / deadzone=21,11 / fast_pskip=1 / chroma_qp_offset=0 / threads=2 / lookahead_threads=1 / sliced_threads=0 / nr=0 / decimate=1 / interlaced=0 / bluray_compat=0 / constrained_intra=0 / bframes=0 / weightp=2 / keyint=250 / keyint_min=25 / scenecut=40 / intra_refresh=0 / rc_lookahead=40 / rc=abr / mbtree=1 / bitrate=4496 / ratetol=1.0 / qcomp=0.60 / qpmin=10 / qpmax=51 / qpstep=4 / ip_ratio=1.41 / aq=1:1.00
Дата кодирования : UTC 2014-12-16 08:30:05
Дата пометки : UTC 2014-12-16 08:30:05

Аудио
Идентификатор : 2
Формат : AAC
Формат/Информация : Advanced Audio Codec
Профиль формата : LC
Идентификатор кодека : 40
Продолжительность : 4 м. 33 с.
Вид битрейта : Переменный
Битрейт : 151 Кбит/сек
Максимальный битрейт : 176,4 Кбит/сек
Каналы : 2 канала
Расположение каналов : Front: L R
Частота : 44,1 КГц
Метод сжатия : С потерями
Размер потока : 4,91 Мбайт (3%)
Дата кодирования : UTC 2014-12-16 08:30:05
Дата пометки : UTC 2014-12-16 08:30:05
Общее
Полное имя : E:\VA - Зимний марафон № 149 (Новые Клипы Уходящего Года)\Юлия Беретта - С Новым Годом, Друзья! (ПРЕМЬЕРА!).mp4
Формат : MPEG-4
Профиль формата : Base Media
Идентификатор кодека : isom
Размер файла : 118 Мбайт
Продолжительность : 3 м. 30 с.
Общий поток : 4683 Кбит/сек
Дата кодирования : UTC 2014-12-26 15:07:26
Дата пометки : UTC 2014-12-26 15:07:26
Программа кодирования : Lavf54.63.104

Видео
Идентификатор : 1
Формат : AVC
Формат/Информация : Advanced Video Codec
Профиль формата :
Параметр CABAC формата : Да
Параметр ReFrames формата : 1 кадр
Идентификатор кодека : avc1
Идентификатор кодека/Информация : Advanced Video Coding
Продолжительность : 3 м. 30 с.
Вид битрейта : Переменный
Битрейт : 4496 Кбит/сек
Ширина : 1920 пикс.
Высота : 1080 пикс.
Соотношение сторон : 16:9
Режим частоты кадров : Постоянный
Частота кадров : 25,000 кадр/сек
Цветовое пространство : YUV
Подвыборка цветности : 4:2:0
Битовая глубина : 8 бит
Тип развёртки : Прогрессивная
Бит/(Пиксели*Кадры) : 0.087
Размер потока : 114 Мбайт (97%)
Библиотека кодирования : x264 core 129
Настройки программы : cabac=1 / ref=1 / deblock=1:0:0 / analyse=0x1:0x131 / me=dia / subme=2 / psy=1 / psy_rd=1.00:0.00 / mixed_ref=0 / me_range=16 / chroma_me=1 / trellis=0 / 8x8dct=0 / cqm=0 / deadzone=21,11 / fast_pskip=1 / chroma_qp_offset=0 / threads=2 / lookahead_threads=1 / sliced_threads=0 / nr=0 / decimate=1 / interlaced=0 / bluray_compat=0 / constrained_intra=0 / bframes=0 / weightp=2 / keyint=250 / keyint_min=25 / scenecut=40 / intra_refresh=0 / rc_lookahead=40 / rc=abr / mbtree=1 / bitrate=4496 / ratetol=1.0 / qcomp=0.60 / qpmin=10 / qpmax=51 / qpstep=4 / ip_ratio=1.41 / aq=1:1.00
Дата кодирования : UTC 2014-12-26 15:07:26
Дата пометки : UTC 2014-12-26 15:07:26

Аудио
Идентификатор : 2
Формат : AAC
Формат/Информация : Advanced Audio Codec
Профиль формата : LC
Идентификатор кодека : 40
Продолжительность : 3 м. 30 с.
Вид битрейта : Переменный
Битрейт : 152 Кбит/сек
Максимальный битрейт : 176,4 Кбит/сек
Каналы : 2 канала
Расположение каналов : Front: L R
Частота : 44,1 КГц
Метод сжатия : С потерями
Размер потока : 3,81 Мбайт (3%)
Дата кодирования : UTC 2014-12-26 15:07:26
Дата пометки : UTC 2014-12-26 15:07:26
Скриншоты:


Новогоднего настроения и


Время раздачи:
24/7 - до 5 скачавших, далее по возможности.
 
Не забывайте говорить Спасибо. Не уходите с раздачи!   
Торрент: Зарегистрирован [29 дек 2014, 01:20] Скачать торрент
Скачать торрент
[ Размер 19.32 КБ / Просмотров 22 ]
Статус:
Проверен
 
.torrent скачан: 0 раз
Хэш: c7f9f873a27e3b14b0b3149d4087dfedc96f6a28
Размер: 3.16 ГБ (3 387 929 619 байт)
Стать Автором раздачи
 
 
Раздал: 6.67 ГБ
Скачал: 302.5 МБ
Ратио: 22.576
Сообщения: 374198
Зарегистрирован: 17 апр 2014, 11:05


  • Похожие торренты
    Ответы
    Просмотры
    Последнее сообщение

Вернуться в Музыкальные клипы (транзит)

Ресурс не предоставляет электронные версии произведений, а занимается лишь коллекционированием и каталогизацией ссылок, присылаемых и публикуемых на форуме нашими читателями. Если вы являетесь правообладателем какого-либо представленного материала и не желаете чтобы ссылка на него находилась в нашем каталоге, свяжитесь с нами и мы незамедлительно удалим её. Файлы для обмена на трекере предоставлены пользователями сайта, и администрация не несёт ответственности за их содержание. Просьба не заливать файлы, защищенные авторскими правами, а также файлы нелегального содержания!
cron