Бивень (Tusk) (2014) [MP4 | 1024x424] <BDRip H.264>

 
 Статистика раздачи 
Размер: 2.03 ГБ   |  Зарегистрирован: 28 дек 2014, 16:27   |   .torrent скачан: 0 раз
Сидеров: 1  [ 0 байт/сек ]     Личеров: 0  [ 0 байт/сек ]  
  

Бивень (Tusk) (2014) [MP4 | 1024x424] <BDRip H.264>

Сообщение Thistoll » 28 дек 2014, 16:27

Бивень (Tusk) (2014) BDRip

«Люди для него - лишь расходный материал»

Год выпуска: 2014
Страна: США
Жанр: Триллер, Ужасы, Комедия

Описание фильма:
Журналист Уоллес Брайтон уехал брать интервью и исчез навсегда. Его друг вместе с девушкой Уоллеса отправляется на поиски. Поиски приводят пару к полицейскому в отставке, который много лет занимался поиском пропавших людей и который рассказывает им, что есть некая закономерность в пропаже людей. Люди пропадают, а потом находят их обезображенные кости. Полицейский думает, что все это дело рук серийного убийцы. Считая, что Уоллес каким-то образом попал в его руки, троица идет по следу маньяка, даже не представляя себе, что правда, которую им предстоит узнать, настолько ужасна, что в нее просто невозможно поверить.

Режиссер: Кевин Смит
Актеры: Майкл Паркс, Джастин Лонг, Дженезис Родригез, Хэйли Джоэл Осмент, Джонни Депп, Харли Моренштейн, Ральф Гармен, Дженнифер Швалбах Смит, Харли Куинн Смит, Лили-Роуз Мелоди Депп

Продолжительность: 01:44:56
Перевод: Дублированный (iTunes)


Дата мировой премьеры: 6 сентября 2014
Дата российской премьеры: 9 октября 2014
Дата выхода DVD/Blu-Ray релиза: 15 января 2015
Формат: MP4 (ISO v.2)
Качество видео: BDRip 576p
Видеокодек: MPEG-4 AVC/H.264
Битрейт видео: ~2573 kb/s
Размер кадра: 1024x424
Аудиокодек: AAC
Битрейт аудио: 192 kb/s 2.0 CBR LC
Код:
Код: Выделить всё
General
Complete name               : D:\Фильмы\Бивень.2014.BDRip.576p.NNM-Club.mp4
Format                      : MPEG-4
Format profile              : Base Media / Version 2
Codec ID                    : mp42
File size                   : 2.03 GiB
Duration                    : 1h 44mn
Overall bit rate            : 2 764 Kbps
Encoded date                : UTC 2014-12-27 05:19:55
Tagged date                 : UTC 2014-12-27 05:19:55
Writing library             : AVS

Video
ID                          : 1
Format                      : AVC
Format/Info                 : Advanced Video Codec
Format profile              :
Format settings, CABAC      : Yes
Format settings, ReFrames   : 5 frames
Codec ID                    : avc1
Codec ID/Info               : Advanced Video Coding
Duration                    : 1h 44mn
Bit rate                    : 2 573 Kbps
Width                       : 1 024 pixels
Height                      : 424 pixels
Display aspect ratio        : 2.40:1
Frame rate mode             : Constant
Frame rate                  : 23.976 fps
Color space                 : YUV
Chroma subsampling          : 4:2:0
Bit depth                   : 8 bits
Scan type                   : Progressive
Bits/(Pixel*Frame)          : 0.247
Stream size                 : 1.89 GiB (93%)
Language                    : English
Encoded date                : UTC 2014-12-27 05:19:55
Tagged date                 : UTC 2014-12-27 05:19:55
Color primaries             : BT.709
Transfer characteristics    : BT.709
Matrix coefficients         : BT.709

Audio
ID                          : 2
Format                      : AAC
Format/Info                 : Advanced Audio Codec
Format profile              : LC
Codec ID                    : 40
Duration                    : 1h 44mn
Bit rate mode               : Constant
Bit rate                    : 192 Kbps
Channel(s)                  : 2 channels
Channel positions           : Front: L R
Sampling rate               : 44.1 KHz
Compression mode            : Lossy
Stream size                 : 138 MiB (7%)
Language                    : English
Encoded date                : UTC 2014-12-27 05:19:55
Tagged date                 : UTC 2014-12-27 05:19:55
Биврёст — это в германо-скандинавской мифологии радужный мост, соединяющий Асгард с другими мирами.
Квентину Тарантино предлагали роль Гая Лапойнте, но он отказался, сказав, что он прочитал сценарий и «ждет не дождется, чтобы увидеть, как Майкл Паркс выпустит своего внутреннего кракена», но сам при этом в данный момент не заинтересован в актерской деятельности.
Фильм основан на одном из эпизодов SModcast — еженедельного подкаста режиссера Кевина Смита и его давнего партнера по кинематографу и продюсера Скотта Мосье.
Кевин Смит устроил голосование в твиттере, чтобы узнать мнение своих подписчиков о том, хотят они, чтобы этот фильм был снят или нет. Подавляющее большинство проголосовало за то, что фильм должен быть снят.
Фильм был снят за 15 дней.
Объявление на Gumtree (в котором домовладелец предлагал жилье бесплатно, если жилец соглашается одеваться как морж) — это на самом деле шуточное объявление, выложенное Крисом Паркинсоном, поклонником Кевина Смита, в надежде выйти на контакт с самим Смитом. В итоге Смит нанял Паркинсона на должность продюсера.
Рингтон Уоллеса взят из подкаста Кевина Смита и Ральфа Гармена Hollywood Babble-On. Песня была написана фанатами, которые взяли за основу пародию Гармена на Аль Пачино.
Эпизод, в котором Джастин Лонг заходит в ванную и отворачивает куклу от себя, пока писает, основан на истории из детства Кевина Смита, которую он рассказывал в своем подкасте.
Одно из основных мест проведения съемок фильма — The Cramer Mountain Country Club, который расположен недалеко от города Шарлотт, штат Северная Каролина. Именно в этом месте виновники ограбления банка в 1997 году приобрели особняк после совершения преступления. Большая часть фильма была снята в соседнем гольф-клубе.
В комнате Тедди и Элли, где они пропускают звонки от Уоллеса, на стене есть большая картина в рамке с изображением собаки Шеки (Shecky) Кевина Смита.
Подкасты Уоллеса похожи на SModcast, еженедельный подкаст Кевина Смита.
Имя Грегори Грамтри (Gregory Grumtree) — это отсылка к объявлению, обсуждаемому в подкасте Кевина Смита SModcast, # 259. Грегори — это оригинальное имя мистера Бивня, а Grumtree — это сайт, на котором было найдено это объявление.
Имя персонажа Ральфа Гармена — Фрэнк Гармен. Это отсылка к одному эпизоду подкаста Hollywood Babble-On, когда слушатель прислал Гармену письмо по электронной почте, в котором ошибся с его именем.

Ошибки в фильме

Когда показывают экран GPS-навигатора в начале фильма, на нем видно, что карта статична, а иконка автомобиля движется. При реальной работе GPS-навигатора карта тоже должна двигаться, в противном случае иконка автомобиля просто уйдет за край видимой области.


Время раздачи: Круглосуточно, до первых 10-и скачавших
Приятного просмотра!
 
Не забывайте говорить Спасибо. Не уходите с раздачи!   
Торрент: Зарегистрирован [28 дек 2014, 16:27] Для скачивания .torrent
необходима регистрация
Или скачать с помощью
MediaGet
Статус:
Проверен
 
.torrent скачан: 0 раз
Хэш: 003fe0db553a7fb40902039e8db4e3fed216e350
Размер: 2.03 ГБ (2 175 006 914 байт)
Стать Автором раздачи
 
 
Раздал: 6.67 ГБ
Скачал: 302.5 МБ
Ратио: 22.576
Сообщения: 374198
Зарегистрирован: 17 апр 2014, 11:05


  • Похожие торренты
    Ответы
    Просмотры
    Последнее сообщение

Вернуться в Видео для мобильных устройств

Ресурс не предоставляет электронные версии произведений, а занимается лишь коллекционированием и каталогизацией ссылок, присылаемых и публикуемых на форуме нашими читателями. Если вы являетесь правообладателем какого-либо представленного материала и не желаете чтобы ссылка на него находилась в нашем каталоге, свяжитесь с нами и мы незамедлительно удалим её. Файлы для обмена на трекере предоставлены пользователями сайта, и администрация не несёт ответственности за их содержание. Просьба не заливать файлы, защищенные авторскими правами, а также файлы нелегального содержания!
cron