Последний бриллиант (Le dernier diamant) (2014) [MP4 | 1024x432] <BDRip H.264>

 
 Статистика раздачи 
Размер: 2.12 ГБ   |  Зарегистрирован: 27 дек 2014, 23:23   |   .torrent скачан: 0 раз
Сидеров: 1  [ 0 байт/сек ]     Личеров: 1  [ 0 байт/сек ]  
  

Последний бриллиант (Le dernier diamant) (2014) [MP4 | 1024x432] <BDRip H.264>

Сообщение Thistoll » 27 дек 2014, 23:23

Последний бриллиант (Le dernier diamant) (2014) BDRip

Год выпуска: 2014
Страна: Франция, Люксембург, Бельгия
Жанр: Драма, Криминал

Описание фильма:
Бывший заключенный, втирается в доверие к дочери покойного эксперта-ювелира с целью выкрасть «Флорентийца», один из крупнейших в мире бриллиантов. Добившись своего и заменив драгоценность фальшивкой, мошенник передает бриллиант подельникам, которые тотчас же пытаются его убить. Потеряв в одночасье бриллиант и друзей-предателей, герой пытается удержать самое дорогое, что осталось в его жизни — полюбившую его девушку.

Режиссер: Эрик Барбье
Актеры: Иван Атталь, Беренис Бежо, Жан-Франсуа Стевенен, Антуан Баслер, Жак Списсер, Анни Корди, Мишель Израэль, Шарли Дюпон, Дэниэль Дени, Гене Бервутс

Продолжительность: 01:48:37
Перевод: Многоголосый закадровый, профессиональный


Дата мировой премьеры: 3 апреля 2014
Формат: MP4 (ISO v.2)
Качество видео: BDRip 576p
Видеокодек: MPEG-4 AVC/H.264
Битрейт видео: ~2596 kb/s
Размер кадра: 1024x432
Аудиокодек: AAC
Битрейт аудио: 192 kb/s 2.0 CBR LC
Код:
Код: Выделить всё
General
Complete name               : D:\Фильмы\Последний бриллиант.2014.BDRip.576p.NNM-Club.mp4
Format                      : MPEG-4
Format profile              : Base Media / Version 2
Codec ID                    : mp42
File size                   : 2.12 GiB
Duration                    : 1h 48mn
Overall bit rate            : 2 792 Kbps
Encoded date                : UTC 2014-12-26 03:58:49
Tagged date                 : UTC 2014-12-26 03:58:49
Writing library             : AVS

Video
ID                          : 1
Format                      : AVC
Format/Info                 : Advanced Video Codec
Format profile              :
Format settings, CABAC      : Yes
Format settings, ReFrames   : 5 frames
Codec ID                    : avc1
Codec ID/Info               : Advanced Video Coding
Duration                    : 1h 48mn
Bit rate                    : 2 596 Kbps
Width                       : 1 024 pixels
Height                      : 432 pixels
Display aspect ratio        : 2.40:1
Frame rate mode             : Constant
Frame rate                  : 24.000 fps
Color space                 : YUV
Chroma subsampling          : 4:2:0
Bit depth                   : 8 bits
Scan type                   : Progressive
Bits/(Pixel*Frame)          : 0.245
Stream size                 : 1.97 GiB (93%)
Language                    : English
Encoded date                : UTC 2014-12-26 03:58:49
Tagged date                 : UTC 2014-12-26 03:58:49
Color primaries             : BT.709
Transfer characteristics    : BT.709
Matrix coefficients         : BT.709

Audio
ID                          : 2
Format                      : AAC
Format/Info                 : Advanced Audio Codec
Format profile              : LC
Codec ID                    : 40
Duration                    : 1h 48mn
Bit rate mode               : Constant
Bit rate                    : 192 Kbps
Channel(s)                  : 2 channels
Channel positions           : Front: L R
Sampling rate               : 44.1 KHz
Compression mode            : Lossy
Stream size                 : 147 MiB (7%)
Language                    : English
Encoded date                : UTC 2014-12-26 03:58:49
Tagged date                 : UTC 2014-12-26 03:58:49


Время раздачи: Круглосуточно, до первых 10-и скачавших
Приятного просмотра!
 
Не забывайте говорить Спасибо. Не уходите с раздачи!   
Торрент: Зарегистрирован [27 дек 2014, 23:23] Для скачивания .torrent
необходима регистрация
Или скачать с помощью
MediaGet
Статус:
Проверен
 
.torrent скачан: 0 раз
Хэш: a1ee2864cb30aa0221ebb5cb595a34a916a22c20
Размер: 2.12 ГБ (2 274 806 568 байт)
Стать Автором раздачи
 
 
Раздал: 6.67 ГБ
Скачал: 302.5 МБ
Ратио: 22.576
Сообщения: 374198
Зарегистрирован: 17 апр 2014, 11:05


  • Похожие торренты
    Ответы
    Просмотры
    Последнее сообщение

Вернуться в Видео для мобильных устройств

Ресурс не предоставляет электронные версии произведений, а занимается лишь коллекционированием и каталогизацией ссылок, присылаемых и публикуемых на форуме нашими читателями. Если вы являетесь правообладателем какого-либо представленного материала и не желаете чтобы ссылка на него находилась в нашем каталоге, свяжитесь с нами и мы незамедлительно удалим её. Файлы для обмена на трекере предоставлены пользователями сайта, и администрация не несёт ответственности за их содержание. Просьба не заливать файлы, защищенные авторскими правами, а также файлы нелегального содержания!
cron