Наш Сад / (серии 21-46) (2014) [MP4|854x480] <WEB-DLRip H.264>

 
 Статистика раздачи 
Размер: 3.9 ГБ   |  Зарегистрирован: 26 дек 2014, 22:17   |   .torrent скачан: 0 раз
Сидеров: 1  [ 0 байт/сек ]     Личеров: 0  [ 0 байт/сек ]  
  

Наш Сад / (серии 21-46) (2014) [MP4|854x480] <WEB-DLRip H.264>

Сообщение Thistoll » 26 дек 2014, 22:17

Наш Сад (2014) WEB-DLRip

Год выпуска: 2014
Жанр: Документальный
Режиссер / Телекомпания: М. Овчинникова, А. Хачатуров/НПО "Сады России"

Описание:
Наш Сад: программа для садоводов и любителей загородной жизни.

Для тех, кто увлекается садоводством, ландшафтным дизайном, цветоводством и растениеводством, кто своими руками строит и обустраивает дом, приусадебный участок, кто умеет добиваться необыкновенных урожаев, готовить здоровую пищу и интересно отдыхать. Многим кажется, что работа на садовом участке достаточно трудоемка и затратная с материальной точки зрения. В программе на конкретном примере, мы покажем вам, что красиво – это не обязательно дорого, а вырастить достойный урожай под силу каждому, кто имеет терпение, опыт, а главное, знает секреты мастерства от настоящих садоводов. В «Нашем Саду» - мастер-классы, самые свежие идеи, новинки и лучшие сорта любимых овощей и фруктов. А «Наши люди» с удовольствием поделятся с вами своими успехами и полезными советами!
Хвойники, селекция томатов, садовые страницы, рождественский гусь.
Готовим землю, советы профессионалов, экскурсия лимонарий.
Зимняя прививка, сладкий перец, защита сада от грызунов, садовая пресса.
Помидоры - "челябинский метеорит", цветы, экскурсия лимонарий.
Весеняя обрезка, земляника садовая, садовые новости.
Яблоки, картофель, капуста, лаборатория.
Персики, как Ваш сад пережил зиму, садовая пресса, городим огород.
Весеняя обрезка, весенняя прививка, удобрение.
Поднимаем из укрытия сланцевые формы, редис, цветы, садовая пресса.
Деревья сажаем правильно, непростой картофель, огурцы новинки селекции, цветы.
Черёмуха, розовый миндаль, высаживаем рассаду помидор.
Груша, абрикосы, черешня ведем её в сланец, садовая пресса.
Черешня, садовая земляника, цветы, сады и люди.
Земляничная плонтация, супер помидоры, садовая пресса.
Черная смородина, цветы, чеканка абрикоса, сады и люди.
Красная смородина, сладкий перец-гиганты, садовая пресса.
Яблоки-Орловские сорта, цветы, формируем зимостойкую черешню.
"Цветы 2014", раскошная груша, ежевика, садовая пресса.
Яблоки, помидоры, свекла, российское киви.
Правильно выбрать садовых и ягодных культур, ошибки посадки, что нового в помидорной моде, цветы.
"Золотая осень" на ВДНХа, малина до заморозков, осеннее новоселье новых деревьев, садовая пресса.
Осенние спасательные работы, последние цветы осени, лучшая морковь прошедшего сезона, экзотическая эписция.
Неприхотливая тернослива, еще раз о прикопе, ботанический сад, садовая пресса.
Опрыскивание и защита от грызунов, садовые барбарисы, лимонный сад, лучшие идеи садового дизайна.
Новинки селекции семян, флер-д-оранж - библейское дерево, черешня "Ревна", садовые страницы декабря.
Запахи Нового Года вполне по силам вырастить, коллекция цитрусовых, повышаем иммунитет, Новогоднее поздравление от Директора "Садов России".
Скачать сэмпл

Продолжительность: 26 х ~00:19:00
Перевод: Не требуется (нет диалогов и комментариев)

Качество видео: WEB-DLRip
Формат: MP4
Видеокодек: MPEG-4 AVC/H.264
Битрейт видео: ~1066 Кбит/сек
Размер кадра: 854x480 (16:9)
Аудиокодек: AAC, 2 канала
Битрейт аудио: 126 Кбит/сек
Формат : MPEG-4
Профиль формата : Base Media
Размер файла : 166 Мбайт
Продолжительность : 19 м.
Общий поток : 1199 Кбит/сек
Программа кодирования : Lavf55.19.102

Видео
Идентификатор : 1
Формат : AVC
Формат/Информация : Advanced Video Codec
Профиль формата :
Параметр CABAC формата : Да
Параметр ReFrames формата : 3 кадра
Идентификатор кодека : avc1
Идентификатор кодека/Информация : Advanced Video Coding
Продолжительность : 19 м.
Битрейт : 1066 Кбит/сек
Ширина : 854 пикселя
Высота : 480 пикселей
Соотношение сторон : 16:9
Режим частоты кадров : Постоянный
Частота кадров : 25,000 кадров/сек
Цветовое пространство : YUV
Субдискретизация насыщенности : 4:2:0
Битовая глубина : 8 бит
Тип развёртки : Прогрессивная
Бит/(Пиксели*Кадры) : 0.104
Размер потока : 148 Мбайт (89%)

Аудио
Идентификатор : 2
Формат : AAC
Формат/Информация : Advanced Audio Codec
Профиль формата : LC
Идентификатор кодека : 40
Продолжительность : 19 м.
Вид битрейта : Постоянный
Битрейт : 126 Кбит/сек
Каналы : 2 канала
Расположение каналов : Front: L R
Частота : 44,1 КГц
Метод сжатия : С потерями
Размер потока : 17,4 Мбайт (10%)
Внимание! Раздача ведётся путём добавления новых серий; при каждом добавлении создаётся новый торрент.
Чтобы начать докачку новой серии, пользователям необходимо сделать следующее:
1. Остановить скачивание;
2. Удалить старый торрент у себя из клиента (старые серии удалять не надо);
3. Скачать новый торрент и запустить его у себя в клиенте вместо старого, при этом указать клиенту путь в старую папку куда и должно происходить скачивание новых серий. Ваш клиент при этом должен произвести хеширование (проверку) старой папки и будет докачивать только те серии, которых у вас ещё нет. Старые серии при этом не удаляются, а продолжают раздаваться! Eсли вы уже удалили старые серии, то предотвратить повторную закачку старых серий можно, отжав галочку в соответствующих местах при запуске нового торрента.
Скриншоты:


Время раздачи: до 5 скачавших и по возможности
 
Не забывайте говорить Спасибо. Не уходите с раздачи!   
Торрент: Зарегистрирован [26 дек 2014, 22:17] Для скачивания .torrent
необходима регистрация
Или скачать с помощью
MediaGet
Статус:
Проверен
 
.torrent скачан: 0 раз
Хэш: 49477d13197d0eee5d5fd37541ecd656de927c19
Размер: 3.9 ГБ (4 185 553 310 байт)
Стать Автором раздачи
 
 
Раздал: 6.67 ГБ
Скачал: 302.5 МБ
Ратио: 22.576
Сообщения: 374198
Зарегистрирован: 17 апр 2014, 11:05


  • Похожие торренты
    Ответы
    Просмотры
    Последнее сообщение

Вернуться в Видео для мобильных устройств

Ресурс не предоставляет электронные версии произведений, а занимается лишь коллекционированием и каталогизацией ссылок, присылаемых и публикуемых на форуме нашими читателями. Если вы являетесь правообладателем какого-либо представленного материала и не желаете чтобы ссылка на него находилась в нашем каталоге, свяжитесь с нами и мы незамедлительно удалим её. Файлы для обмена на трекере предоставлены пользователями сайта, и администрация не несёт ответственности за их содержание. Просьба не заливать файлы, защищенные авторскими правами, а также файлы нелегального содержания!
cron