The Beatles - A Day In The Life (1967) HDTV [1080i]

 
 Статистика раздачи 
Размер: 443.06 МБ   |  Зарегистрирован: 26 дек 2014, 05:58   |   .torrent скачан: 3 раз
Сидеров: 1  [ 0 байт/сек ]     Личеров: 0  [ 0 байт/сек ]  
  

The Beatles - A Day In The Life (1967) HDTV [1080i]

Сообщение Thistoll » 26 дек 2014, 05:58

The Beatles - A Day In The Life (1967) HDTV [1080i]

http://i.imgur.com/hNx6dN8.jpg
Год выпуска: 1967
Жанр: Музыкальный

Описание:
За один день может случиться много чего. Можно утром стать миллионером, а вечером попасть в автокатастрофу. Или с утра выпить чашечку чая, днем посмотреть фильм о том, как английская армия выиграла войну, а вечером попасть... на эту самую войну! Хотя в настоящей войне и автокатастрофы выглядят по-другому, и армия далеко не всегда побеждает.
«A Day in the Life» (рус. День из жизни) — песня группы The Beatles, выпущенная в 1967 году. Закрывает альбом Sgt. Pepper’s Lonely Hearts Club Band. По признанию многих критиков является одной из лучших композиций за всю историю звукозаписи. В частности, в списке 500 величайших песен всех времён по версии журнала Rolling Stone песня была помещена на 26-ю позицию. Она также возглавила список «100 лучших песен Beatles», составленный тем же изданием в 2011 году.

Режиссер: The Beatles
Актеры:
Джон Леннон — вокал; акустическая гитара, маракасы, фортепиано (в финальном аккорде).
Пол Маккартни — фортепиано, вокал, бас-гитара.
Джордж Харрисон — маракасы, акустическая гитара.
Ринго Старр — ударные, конго, фортепиано (в финальном аккорде).
Джордж Мартин — фисгармония (в финальном аккорде), продюсер.
Мэл Эванс: будильник, счёт, фортепиано (в финальном аккорде).
Джефри Эмерик — инженер звукозаписи и сведе́ния.
Джон Марстон — арфа.
Эрих Грюнберг, Грэнвил Джонс, Билл Монро, Юрген Гесс, Ганс Гейгер, Д. Бредли, Лайонел Бентли, Дэвид Маккаллум, Дональд Уикс, Генри Датинер, Сидни Сакс, Эрнест Скотт — скрипка.
Джон Андервуд, Гвин Эдвардс, Бернард Дэвис, Джон Мик — альт
Франсиско Габарро, Дэннис Вигей, Алан Дельзиль, Алекс Нифоси — виолончель.
Сирил Мак-Артер, Гордон Пирс — контрабас
Роджер Лорд — гобой.
Бэзил Чайков, Джек Бример — кларнет.
Н. Фоссет, Альфред Уотерс — фагот
Клиффорд Севиль, Дэвид Сэндимэн — флейта
Алан Сивил, Нейл Сандерс — валторна
Дэвид Мэсон, Монти Монтгомери, Гарольд Джексон — труба
Раймонд Браун, Раймонд Премру, Т. Мур — тромбон
Майкл Бэрнс — туба
Тристан Фрай — литавры
Запись песни производилась 19, 20 января, 3, 10, 22 февраля и 21 апреля 1967 года.
Доп. информация]Клип сделал на основе фильма Как я выиграл войну / How I Won the War с участием Джона Леннона Как я выиграл войну / How I Won the War (1967) [1080i] HDTV

Продолжительность: 00:05:38
Качество видео: HDTV
Язык: Английский

Видеокодек: MPEG-4 AVC/H.264
Битрейт видео: ~10000 Kbps (25 fps)
Размер кадра: 1920x1080 (1080i, 16:9)
Аудиокодек: AC3 2.0
Битрейт аудио: 384 Kbps (48 KHz)
Клип сделал на основе фильма Как я выиграл войну / How I Won the War с участием Джона Леннона Как я выиграл войну / How I Won the War (1967) [1080i] HDTV
Код:
Код: Выделить всё
I:\Torrent_Download\A_Day_In_The_Life.m2ts
   General #0
      ID : 0 (0x0)
      Complete name : I:\Torrent_Download\A_Day_In_The_Life.m2ts
      Format : BDAV
      Format/Info : Blu-ray Video
      File size : 443 MiB
      Duration : 5mn 39s
      Overall bit rate : 11.0 Mbps
      Maximum Overall bit rate : 48.0 Mbps
   Video #4113
      ID : 4113 (0x1011)
      Menu ID : 1 (0x1)
      Format : AVC
      Format/Info : Advanced Video Codec
      Format profile :
      Format settings, CABAC : Yes
      Format settings, ReFrames : 2 frames
      Codec ID : 27
      Duration : 5mn 38s
      Bit rate mode : Variable
      Bit rate : 10.1 Mbps
      Maximum bit rate : 20.0 Mbps
      Width : 1 920 pixels
      Height : 1 080 pixels
      Display aspect ratio : 16:9
      Frame rate : 25.000 fps
      Standard : PAL
      Color space : YUV
      Chroma subsampling : 4:2:0
      Bit depth : 8 bits
      Scan type : Interlaced
      Scan order : Top Field First
      Bits/(Pixel*Frame) : 0.195
      Stream size : 409 MiB (92%)
      Color primaries : BT.709-5, BT.1361, IEC 61966-2-4, SMPTE RP177
      Transfer characteristics : BT.709-5, BT.1361
      Matrix coefficients : BT.709-5, BT.1361, IEC 61966-2-4 709, SMPTE RP177
   Audio #4352
      ID : 4352 (0x1100)
      Menu ID : 1 (0x1)
      Format : AC-3
      Format/Info : Audio Coding 3
      Mode extension : CM (complete main)
      Codec ID : 129
      Duration : 5mn 38s
      Bit rate mode : Constant
      Bit rate : 384 Kbps
      Channel(s) : 2 channels
      Channel positions : Front: L R
      Sampling rate : 48.0 KHz
      Bit depth : 16 bits
      Compression mode : Lossy
      Stream size : 15.5 MiB (4%)
Скриншоты:
Время раздачи: круглосуточно
 
Не забывайте говорить Спасибо. Не уходите с раздачи!   
Торрент: Зарегистрирован [26 дек 2014, 05:58] Скачать торрент
Скачать торрент
[ Размер 17.98 КБ / Просмотров 32 ]
Статус:
Проверен
 
.torrent скачан: 3 раз
Хэш: 4b5f1bcb5dde969b0462ab19c0b9d4944bfc290b
Размер: 443.06 МБ (464 578 560 байт)
Стать Автором раздачи
 
 
Раздал: 6.67 ГБ
Скачал: 302.5 МБ
Ратио: 22.576
Сообщения: 374198
Зарегистрирован: 17 апр 2014, 11:05


  • Похожие торренты
    Ответы
    Просмотры
    Последнее сообщение

Вернуться в Музыкальные клипы (транзит)

Ресурс не предоставляет электронные версии произведений, а занимается лишь коллекционированием и каталогизацией ссылок, присылаемых и публикуемых на форуме нашими читателями. Если вы являетесь правообладателем какого-либо представленного материала и не желаете чтобы ссылка на него находилась в нашем каталоге, свяжитесь с нами и мы незамедлительно удалим её. Файлы для обмена на трекере предоставлены пользователями сайта, и администрация не несёт ответственности за их содержание. Просьба не заливать файлы, защищенные авторскими правами, а также файлы нелегального содержания!
cron