Великий уравнитель (The Equalizer) (2014) [MP4 | 1024x432] <BDRip H.264>

 
 Статистика раздачи 
Размер: 2.63 ГБ   |  Зарегистрирован: 18 дек 2014, 19:51   |   .torrent скачан: 0 раз
Сидеров: 1  [ 0 байт/сек ]     Личеров: 0  [ 0 байт/сек ]  
  

Великий уравнитель (The Equalizer) (2014) [MP4 | 1024x432] <BDRip H.264>

Сообщение Thistoll » 18 дек 2014, 19:51

Великий уравнитель (The Equalizer) (2014) BDRip

«Что вы видите когда вы смотрите на меня?»

Год выпуска: 2014
Страна: США
Жанр: Боевик, Триллер, Криминал

Описание фильма:
Роберт МакКолл — бывший спецназовец. После увольнения со службы он собирается начать нормальную мирную жизнь, дав себе обещание больше никогда не брать в руки оружия. Но в один прекрасный момент он встречает молодую девушку, зарабатывающую на жизнь проституцией, которую на его глазах избивают бандиты и увозят в неизвестном направлении. Тогда он решает отыскать ее, после чего вступает в неравную схватку с русской мафией и продажными агентами ЦРУ. Ради справедливости он готов нарушить собственное обещание и применить оружие против людей, которые просто не заслуживают жить в этом мире…

Режиссер: Антуан Фукуа
Актеры: Дензел Вашингтон, Мартон Чокаш, Клои Грэйс Моретц, Дэвид Харбор, Хейли Беннетт, Билл Пуллман, Мелисса Лео, Дэвид Мюнье, Джонни Скуртис, Алекс Видов

Продолжительность: 02:12:02
Перевод: Дублированный (iTunes)


Дата мировой премьеры: 7 сентября 2014
Дата российской премьеры: 25 сентября 2014
Дата выхода DVD/Blu-Ray релиза: 22 января 2015
Формат: MP4 (ISO v.2)
Качество видео: BDRip 576p
Видеокодек: MPEG-4 AVC/H.264
Битрейт видео: ~2638 kb/s
Размер кадра: 1024x432
Аудиокодек: AAC
Битрейт аудио: 224 kb/s 2.0 CBR LC
General
Complete name : D:\Фильмы\Великий уравнитель.2014.BDRip.576p.NNM-Club.mp4
Format : MPEG-4
Format profile : Base Media / Version 2
Codec ID : mp42
File size : 2.63 GiB
Duration : 2h 12mn
Overall bit rate : 2 848 Kbps
Encoded date : UTC 2014-12-17 09:56:21
Tagged date : UTC 2014-12-17 09:56:21
Writing library : AVS

Video
ID : 1
Format : AVC
Format/Info : Advanced Video Codec
Format profile :
Format settings, CABAC : Yes
Format settings, ReFrames : 5 frames
Codec ID : avc1
Codec ID/Info : Advanced Video Coding
Duration : 2h 12mn
Bit rate : 2 638 Kbps
Width : 1 024 pixels
Height : 432 pixels
Display aspect ratio : 2.40:1
Frame rate mode : Constant
Frame rate : 23.976 fps
Color space : YUV
Chroma subsampling : 4:2:0
Bit depth : 8 bits
Scan type : Progressive
Bits/(Pixel*Frame) : 0.249
Stream size : 2.43 GiB (93%)
Language : English
Encoded date : UTC 2014-12-17 09:56:21
Tagged date : UTC 2014-12-17 09:56:21
Color primaries : BT.709
Transfer characteristics : BT.709
Matrix coefficients : BT.709

Audio
ID : 2
Format : AAC
Format/Info : Advanced Audio Codec
Format profile : LC
Codec ID : 40
Duration : 2h 12mn
Bit rate mode : Constant
Bit rate : 204 Kbps
Nominal bit rate : 224 Kbps
Channel(s) : 2 channels
Channel positions : Front: L R
Sampling rate : 44.1 KHz
Compression mode : Lossy
Stream size : 192 MiB (7%)
Language : English
Encoded date : UTC 2014-12-17 09:56:22
Tagged date : UTC 2014-12-17 09:56:22
Фильм основан на телесериале «Уравнитель» (1985-1989). Шоу было настолько популярным, что люди на улице подходили к исполнителю главной роли Эдварду Вудворду и просили его помочь – не как актера, а как «бывшего тайного агента».
Роль Терри была изначально написана для более взрослой актрисы, но Хлоя Грейс Морец так сильно впечатлила режиссера, что роль переписали под нее.
Первоначально планировалось, что Роберта МакКолла сыграет Рассел Кроу.
Мелисса Лео ранее снималась в сериале «Уравнитель» (1985-1989).
Практически все боевые сцены Дензел Вашингтон исполнил самостоятельно.


Время раздачи: Круглосуточно, до первых 10-и скачавших
Приятного просмотра!
 
Не забывайте говорить Спасибо. Не уходите с раздачи!   
Торрент: Зарегистрирован [18 дек 2014, 19:51] Для скачивания .torrent
необходима регистрация
Или скачать с помощью
MediaGet
Статус:
Проверен
 
.torrent скачан: 0 раз
Хэш: 246d9d9f19d1b276489429a597744e1e6ddd5496
Размер: 2.63 ГБ (2 820 545 020 байт)
Стать Автором раздачи
 
 
Раздал: 6.67 ГБ
Скачал: 302.5 МБ
Ратио: 22.576
Сообщения: 374198
Зарегистрирован: 17 апр 2014, 11:05


  • Похожие торренты
    Ответы
    Просмотры
    Последнее сообщение

Вернуться в Видео для мобильных устройств

Ресурс не предоставляет электронные версии произведений, а занимается лишь коллекционированием и каталогизацией ссылок, присылаемых и публикуемых на форуме нашими читателями. Если вы являетесь правообладателем какого-либо представленного материала и не желаете чтобы ссылка на него находилась в нашем каталоге, свяжитесь с нами и мы незамедлительно удалим её. Файлы для обмена на трекере предоставлены пользователями сайта, и администрация не несёт ответственности за их содержание. Просьба не заливать файлы, защищенные авторскими правами, а также файлы нелегального содержания!
cron