(Hard Rock) Deep Purple - Stormbringer 1974 (Metal Blade Rec., 9 26456-2,USA) 1990, FLAC (image+.cue), lossless

 
 Статистика раздачи 
Размер: 301.71 МБ   |  Зарегистрирован: 18 дек 2014, 19:39   |   .torrent скачан: 0 раз
Сидеров: 1  [ 0 байт/сек ]     Личеров: 0  [ 0 байт/сек ]  
  

(Hard Rock) Deep Purple - Stormbringer 1974 (Metal Blade Rec., 9 26456-2,USA) 1990, FLAC (image+.cue), lossless

Сообщение bagouser » 18 дек 2014, 19:39

Deep Purple - Stormbringer
Жанр: Hard Rock
Носитель: CD
Страна-производитель диска: USA
Год издания: 1990
Издатель (лейбл): Metal Blade Rec.
Номер по каталогу: 9 26456-2
Страна: England
Аудиокодек: FLAC (*.flac)
Тип рипа: image+.cue
Битрейт аудио: lossless
Продолжительность: 36:33
Источник (релизер): собственный
Наличие сканов в содержимом раздачи: да
Треклист:
01. Stormbringer
02. Love Don't Mean A Thing
03. Holy Man
04. Hold On
05. Lady Double Dealer
06. You Can't Do It Right (With The One You Love)
07. High Ball Shooter
08. The Gypsy
09. Soldier Of Fortune
Код: Выделить всё
Exact Audio Copy V1.0 beta 3 from 29. August 2011

EAC extraction logfile from 18. December 2014, 0:02

Deep Purple / Stormbringer

Used drive  : SONY    BD RW BDX-S600U   Adapter: 2  ID: 1

Read mode               : Secure
Utilize accurate stream : Yes
Defeat audio cache      : Yes
Make use of C2 pointers : No

Read offset correction                      : 48
Overread into Lead-In and Lead-Out          : No
Fill up missing offset samples with silence : Yes
Delete leading and trailing silent blocks   : No
Null samples used in CRC calculations       : Yes
Used interface                              : Native Win32 interface for Win NT & 2000

Used output format              : User Defined Encoder
Selected bitrate                : 128 kBit/s
Quality                         : High
Add ID3 tag                     : No
Command line compressor         : C:\Program Files (x86)\Exact Audio Copy\Flac\flac.exe
Additional command line options : -V -8 -T "Date=%year%" -T "Genre=%genre%" %source%

TOC of the extracted CD

     Track |   Start  |  Length  | Start sector | End sector
    ---------------------------------------------------------
        1  |  0:00.33 |  4:04.22 |        33    |    18354
        2  |  4:04.55 |  4:22.50 |     18355    |    38054
        3  |  8:27.30 |  4:28.53 |     38055    |    58207
        4  | 12:56.08 |  5:05.12 |     58208    |    81094
        5  | 18:01.20 |  3:20.73 |     81095    |    96167
        6  | 21:22.18 |  3:25.12 |     96168    |   111554
        7  | 24:47.30 |  4:27.50 |    111555    |   131629
        8  | 29:15.05 |  4:04.03 |    131630    |   149932
        9  | 33:19.08 |  3:13.47 |    149933    |   164454

Range status and errors

Selected range

     Filename D:\Deep Purple Discography\Studio\1974. Deep Purple - Stormbringer\1974. Deep Purple - Stormbringer (Metal Blade Rec. 9  26456-2,USA)\Deep Purple - Stormbringer.wav

     Peak level 96.4 %
     Extraction speed 6.1 X
     Range quality 100.0 %
     Test CRC 5ABBBCA4
     Copy CRC 5ABBBCA4
     Copy OK

No errors occurred

AccurateRip summary

Track  1  accurately ripped (confidence 6)  [9961C573]  (AR v2)
Track  2  accurately ripped (confidence 6)  [7B034A0D]  (AR v2)
Track  3  accurately ripped (confidence 6)  [D79D52BC]  (AR v2)
Track  4  accurately ripped (confidence 6)  [2F346899]  (AR v2)
Track  5  accurately ripped (confidence 7)  [33164B19]  (AR v2)
Track  6  accurately ripped (confidence 7)  [86FEBF8B]  (AR v2)
Track  7  accurately ripped (confidence 7)  [A8FFE3E8]  (AR v2)
Track  8  accurately ripped (confidence 7)  [D45F8436]  (AR v2)
Track  9  accurately ripped (confidence 6)  [796732F6]  (AR v2)

All tracks accurately ripped

End of status report

---- CUETools DB Plugin V2.1.4

[CTDB TOCID: oCYrWUpqO1tHjap9HCKKX_eVH9g-] found
Submit result: oCYrWUpqO1tHjap9HCKKX_eVH9g- has been uploaded
Track | CTDB Status
  1   | (1/1) Accurately ripped
  2   | (1/1) Accurately ripped
  3   | (1/1) Accurately ripped
  4   | (0/1) No match
  5   | (1/1) Accurately ripped
  6   | (1/1) Accurately ripped
  7   | (0/1) No match
  8   | (0/1) No match
  9   | (1/1) Accurately ripped

==== Log checksum E107625304506212BCFF1BB937620EF513FB80FCEB9C630FF8E6570FE7BFE888 ====
Код: Выделить всё
REM GENRE "Hard Rock"
REM DATE 1974
REM DISCID 7A089009
REM COMMENT "ExactAudioCopy v1.0b3"
CATALOG 0075992645621
PERFORMER "Deep Purple"
TITLE "Stormbringer"
FILE "Deep Purple - Stormbringer.flac" WAVE
  TRACK 01 AUDIO
    TITLE "Stormbringer"
    PERFORMER "Deep Purple"
    INDEX 00 00:00:00
    INDEX 01 00:00:33
  TRACK 02 AUDIO
    TITLE "Love Don't Mean A Thing"
    PERFORMER "Deep Purple"
    INDEX 01 04:04:55
  TRACK 03 AUDIO
    TITLE "Holy Man"
    PERFORMER "Deep Purple"
    INDEX 00 08:27:08
    INDEX 01 08:27:30
  TRACK 04 AUDIO
    TITLE "Hold On"
    PERFORMER "Deep Purple"
    INDEX 00 12:55:25
    INDEX 01 12:56:08
  TRACK 05 AUDIO
    TITLE "Lady Double Dealer"
    PERFORMER "Deep Purple"
    INDEX 00 18:00:28
    INDEX 01 18:01:20
  TRACK 06 AUDIO
    TITLE "You Can't Do It Right (With The One You Love)"
    PERFORMER "Deep Purple"
    INDEX 00 21:21:38
    INDEX 01 21:22:18
  TRACK 07 AUDIO
    TITLE "High Ball Shooter"
    PERFORMER "Deep Purple"
    INDEX 00 24:46:28
    INDEX 01 24:47:30
  TRACK 08 AUDIO
    TITLE "The Gypsy"
    PERFORMER "Deep Purple"
    INDEX 00 29:14:20
    INDEX 01 29:15:05
  TRACK 09 AUDIO
    TITLE "Soldier Of Fortune"
    PERFORMER "Deep Purple"
    INDEX 00 33:17:53
    INDEX 01 33:19:08
 
Не забывайте говорить Спасибо. Не уходите с раздачи!   
Торрент: Зарегистрирован [18 дек 2014, 19:39] Скачать торрент
Скачать торрент
[ Размер 12.99 КБ / Просмотров 38 ]
Статус:
Проверен
 
.torrent скачан: 0 раз
Хэш: 6af11555f65f4639a321d7b435b0a61def65f108
Размер: 301.71 МБ (316 364 068 байт)
Стать Автором раздачи
 
Аватара пользователя
 
Раздал: 3.77 ТБ
Скачал: 406.3 ГБ
Ратио: 9.496
Сообщения: 468710
Зарегистрирован: 20 янв 2011, 21:15


Re: (Hard Rock) Deep Purple - Stormbringer 1974 (Metal Blade Rec., 9 26456-2,USA) 1990, FLAC (image+.cue), lossless

Сообщение vinylman » 30 мар 2019, 17:15

Дружище, встань на раздачу Deep Purple! Спасибо.
 
Раздал: 232.29 ГБ
Скачал: 76.36 ГБ
Ратио: 3.042
Сообщения: 1
Зарегистрирован: 14 ноя 2016, 19:14


  • Похожие торренты
    Ответы
    Просмотры
    Последнее сообщение

Вернуться в Classic Rock & Hard Rock (lossless)

Ресурс не предоставляет электронные версии произведений, а занимается лишь коллекционированием и каталогизацией ссылок, присылаемых и публикуемых на форуме нашими читателями. Если вы являетесь правообладателем какого-либо представленного материала и не желаете чтобы ссылка на него находилась в нашем каталоге, свяжитесь с нами и мы незамедлительно удалим её. Файлы для обмена на трекере предоставлены пользователями сайта, и администрация не несёт ответственности за их содержание. Просьба не заливать файлы, защищенные авторскими правами, а также файлы нелегального содержания!
cron