System 7 - Out (2014) [FLAC|Lossless] <Techno, Acid, Trance, Tech House, Ambient>

 
 Статистика раздачи 
Размер: 951.35 МБ   |  Зарегистрирован: 18 дек 2014, 02:19   |   .torrent скачан: 3 раз
Сидеров: 1  [ 0 байт/сек ]     Личеров: 0  [ 0 байт/сек ]  
  

System 7 - Out (2014) [FLAC|Lossless] <Techno, Acid, Trance, Tech House, Ambient>

Сообщение Thistoll » 18 дек 2014, 02:19

System 7 - Out (2014)


Год: 2014
Жанр: Techno, Acid, Trance, Tech House, Ambient
Лейбл: A-Wave
Каталог#: AAWCD016
Продолжительность: 02:30:03

Кодек: FLAC
Битрейт: Lossless
Тип рипа: tracks+.cue+log


CD1
Прoдолжительность: 01:13:59
Трeклист:


01. Planet 7 (James Holden Remix) (09:44)
02. Space Bird (Dubfire Deep Space Remix) (08:38)
03. Passion (Original Mix) (08:19)
04. Sirenes (System 7.1 Remix by Carl Craig) (09:57)
05. AlphaWave (Plastikman Acid House Remix by Richie Hawtin) (20:05)
06. PositiveNoise (Carl Craig Remix) (11:50)
07. PositiveNoise (A. Mochi Remix) (05:26)
CD2
Прoдолжительность: 01:16:04
Трeклист:


01. Interstate (Doc Scott Remix) (08:18)
02. Space Bird (Liquid Soul Remix) (07:31)
03. Planet 7 (Son Kite Remix) (08:32)
04. High Plains Drifter (Voyager Remix) (12:11)
05. Alphawave (Bananadance Remix) (07:29)
06. Alphawave (System 7 2000 Remix) (09:57)
07. Rovo, Eclipse (System 7 Club Remix) (08:02)
08. Chihiro 61298 (Evan Marc Remix) (07:19)
09. Sunburst (Atahualpa Mix) (06:45)


Код:
Код: Выделить всё
Exact Audio Copy V1.0 beta 3 from 29. August 2011

EAC extraction logfile from 26. July 2014, 15:06

System 7 / Out (Disc 1)

Used drive  : MATSHITABD-MLT UJ240ES   Adapter: 1  ID: 0

Read mode               : Secure
Utilize accurate stream : Yes
Defeat audio cache      : Yes
Make use of C2 pointers : No

Read offset correction                      : 103
Overread into Lead-In and Lead-Out          : No
Fill up missing offset samples with silence : Yes
Delete leading and trailing silent blocks   : No
Null samples used in CRC calculations       : Yes
Used interface                              : Native Win32 interface for Win NT & 2000
Gap handling                                : Appended to previous track

Used output format              : User Defined Encoder
Selected bitrate                : 1024 kBit/s
Quality                         : High
Add ID3 tag                     : No
Command line compressor         : C:\Program Files (x86)\Exact Audio Copy\FLAC\FLAC.EXE
Additional command line options : -8 -V -T "ARTIST=%artist%" -T "TITLE=%title%" -T "ALBUM=%albumtitle%" -T "DATE=%year%" -T "TRACKNUMBER=%tracknr%" -T "GENRE=%genre%" -T "PERFORMER=%albuminterpret%" -T "COMPOSER=%composer%" %haslyrics%--tag-from-file=LYRICS="%lyricsfile%"%haslyrics% -T "ALBUMARTIST=%albumartist%" -T "DISCNUMBER=%cdnumber%" -T "TOTALDISCS=%totalcds%" -T "TOTALTRACKS=%numtracks%" -T "COMMENT=%comment%" %source% -o %dest%

TOC of the extracted CD

     Track |   Start  |  Length  | Start sector | End sector
    ---------------------------------------------------------
        1  |  0:00.00 |  9:44.21 |         0    |    43820
        2  |  9:44.21 |  8:38.26 |     43821    |    82696
        3  | 18:22.47 |  8:18.47 |     82697    |   120093
        4  | 26:41.19 |  9:57.12 |    120094    |   164880
        5  | 36:38.31 | 20:05.35 |    164881    |   255290
        6  | 56:43.66 | 11:50.06 |    255291    |   308546
        7  | 68:33.72 |  5:26.03 |    308547    |   332999

Track  1

     Filename D:\incoming\System 7 - Out (2014) [FLAC]\Disc 1\01 - Planet 7 (James Holden Remix).wav

     Pre-gap length  0:00:02.00

     Peak level 99.9 %
     Extraction speed 3.0 X
     Track quality 100.0 %
     Test CRC CB8A0752
     Copy CRC CB8A0752
     Track not present in AccurateRip database
     Copy OK

Track  2

     Filename D:\incoming\System 7 - Out (2014) [FLAC]\Disc 1\02 - Space Bird (Dubfire Deep Space Remix).wav

     Peak level 99.8 %
     Extraction speed 3.5 X
     Track quality 100.0 %
     Test CRC 47EE53F8
     Copy CRC 47EE53F8
     Track not present in AccurateRip database
     Copy OK

Track  3

     Filename D:\incoming\System 7 - Out (2014) [FLAC]\Disc 1\03 - Passion (Original Mix).wav

     Peak level 99.9 %
     Extraction speed 3.7 X
     Track quality 99.9 %
     Test CRC 011FBB2C
     Copy CRC 011FBB2C
     Track not present in AccurateRip database
     Copy OK

Track  4

     Filename D:\incoming\System 7 - Out (2014) [FLAC]\Disc 1\04 - Sirenes (System 7.1 Remix by Carl Craig).wav

     Peak level 99.8 %
     Extraction speed 4.4 X
     Track quality 100.0 %
     Test CRC 25AF9336
     Copy CRC 25AF9336
     Track not present in AccurateRip database
     Copy OK

Track  5

     Filename D:\incoming\System 7 - Out (2014) [FLAC]\Disc 1\05 - AlphaWave (Plastikman Acid House Remix by Richie Hawtin).wav

     Peak level 97.6 %
     Extraction speed 5.0 X
     Track quality 99.9 %
     Test CRC FC86FC23
     Copy CRC FC86FC23
     Track not present in AccurateRip database
     Copy OK

Track  6

     Filename D:\incoming\System 7 - Out (2014) [FLAC]\Disc 1\06 - PositiveNoise (Carl Craig Remix).wav

     Peak level 99.8 %
     Extraction speed 5.6 X
     Track quality 100.0 %
     Test CRC D2BABCF3
     Copy CRC D2BABCF3
     Track not present in AccurateRip database
     Copy OK

Track  7

     Filename D:\incoming\System 7 - Out (2014) [FLAC]\Disc 1\07 - PositiveNoise (A. Mochi Remix).wav

     Peak level 98.1 %
     Extraction speed 1.0 X
     Track quality 99.3 %
     Test CRC 9AFA78D0
     Copy CRC 9AFA78D0
     Track not present in AccurateRip database
     Copy OK

None of the tracks are present in the AccurateRip database

No errors occurred

End of status report

==== Log checksum EC824655699EB981E357CEA2A9C043D08F13DDE734C306030ADA5B6B513A25BA ====

 
Код:
Код: Выделить всё
Exact Audio Copy V1.0 beta 3 from 29. August 2011

EAC extraction logfile from 26. July 2014, 16:11

System 7 / Out (Disc 2)

Used drive  : MATSHITABD-MLT UJ240ES   Adapter: 1  ID: 0

Read mode               : Secure
Utilize accurate stream : Yes
Defeat audio cache      : Yes
Make use of C2 pointers : No

Read offset correction                      : 103
Overread into Lead-In and Lead-Out          : No
Fill up missing offset samples with silence : Yes
Delete leading and trailing silent blocks   : No
Null samples used in CRC calculations       : Yes
Used interface                              : Native Win32 interface for Win NT & 2000
Gap handling                                : Appended to previous track

Used output format              : User Defined Encoder
Selected bitrate                : 1024 kBit/s
Quality                         : High
Add ID3 tag                     : No
Command line compressor         : C:\Program Files (x86)\Exact Audio Copy\FLAC\FLAC.EXE
Additional command line options : -8 -V -T "ARTIST=%artist%" -T "TITLE=%title%" -T "ALBUM=%albumtitle%" -T "DATE=%year%" -T "TRACKNUMBER=%tracknr%" -T "GENRE=%genre%" -T "PERFORMER=%albuminterpret%" -T "COMPOSER=%composer%" %haslyrics%--tag-from-file=LYRICS="%lyricsfile%"%haslyrics% -T "ALBUMARTIST=%albumartist%" -T "DISCNUMBER=%cdnumber%" -T "TOTALDISCS=%totalcds%" -T "TOTALTRACKS=%numtracks%" -T "COMMENT=%comment%" %source% -o %dest%

TOC of the extracted CD

     Track |   Start  |  Length  | Start sector | End sector
    ---------------------------------------------------------
        1  |  0:00.00 |  8:17.69 |         0    |    37343
        2  |  8:17.69 |  7:30.56 |     37344    |    71149
        3  | 15:48.50 |  8:31.61 |     71150    |   109535
        4  | 24:20.36 | 12:10.42 |    109536    |   164327
        5  | 36:31.03 |  7:29.24 |    164328    |   198026
        6  | 44:00.27 |  9:56.71 |    198027    |   242797
        7  | 53:57.23 |  8:02.14 |    242798    |   278961
        8  | 61:59.37 |  7:19.01 |    278962    |   311887
        9  | 69:18.38 |  6:45.03 |    311888    |   342265

Track  1

     Filename D:\incoming\System 7 - Out (2014) [FLAC]\Disc 2\01 - System 7 - Interstate (Doc Scott Remix).wav

     Pre-gap length  0:00:02.00

     Peak level 96.7 %
     Extraction speed 2.9 X
     Track quality 100.0 %
     Test CRC 32606B10
     Copy CRC 32606B10
     Track not present in AccurateRip database
     Copy OK

Track  2

     Filename D:\incoming\System 7 - Out (2014) [FLAC]\Disc 2\02 - System 7 - Space Bird (Liquid Soul Remix).wav

     Peak level 99.8 %
     Extraction speed 3.3 X
     Track quality 100.0 %
     Test CRC 608E1D7E
     Copy CRC 608E1D7E
     Track not present in AccurateRip database
     Copy OK

Track  3

     Filename D:\incoming\System 7 - Out (2014) [FLAC]\Disc 2\03 - System 7 - Planet 7 (Son Kite Remix).wav

     Peak level 99.8 %
     Extraction speed 3.8 X
     Track quality 100.0 %
     Test CRC 31016AEE
     Copy CRC 31016AEE
     Track not present in AccurateRip database
     Copy OK

Track  4

     Filename D:\incoming\System 7 - Out (2014) [FLAC]\Disc 2\04 - System 7 - High Plains Drifter (Voyager Remix).wav

     Peak level 99.8 %
     Extraction speed 4.3 X
     Track quality 100.0 %
     Test CRC D2C8BCCB
     Copy CRC D2C8BCCB
     Track not present in AccurateRip database
     Copy OK

Track  5

     Filename D:\incoming\System 7 - Out (2014) [FLAC]\Disc 2\05 - System 7 - Alphawave (Bananadance Remix).wav

     Peak level 99.8 %
     Extraction speed 4.6 X
     Track quality 100.0 %
     Test CRC BE2992FB
     Copy CRC BE2992FB
     Track not present in AccurateRip database
     Copy OK

Track  6

     Filename D:\incoming\System 7 - Out (2014) [FLAC]\Disc 2\06 - System 7 - Alphawave (System 7 2000 Remix).wav

     Peak level 99.8 %
     Extraction speed 4.7 X
     Track quality 99.9 %
     Test CRC F764B4C9
     Copy CRC F764B4C9
     Track not present in AccurateRip database
     Copy OK

Track  7

     Filename D:\incoming\System 7 - Out (2014) [FLAC]\Disc 2\07 - Rovo - Eclipse (System 7 Club Remix).wav

     Peak level 99.9 %
     Extraction speed 5.2 X
     Track quality 100.0 %
     Test CRC A9E0404E
     Copy CRC A9E0404E
     Track not present in AccurateRip database
     Copy OK

Track  8

     Filename D:\incoming\System 7 - Out (2014) [FLAC]\Disc 2\08 - System 7 - Chihiro 61298 (Evan Marc Remix).wav

     Peak level 99.9 %
     Extraction speed 5.4 X
     Track quality 100.0 %
     Test CRC FA42AEA0
     Copy CRC FA42AEA0
     Track not present in AccurateRip database
     Copy OK

Track  9

     Filename D:\incoming\System 7 - Out (2014) [FLAC]\Disc 2\09 - System 7 - Sunburst (Atahualpa Mix).wav

     Peak level 99.9 %
     Extraction speed 5.2 X
     Track quality 99.9 %
     Test CRC A251696A
     Copy CRC A251696A
     Track not present in AccurateRip database
     Copy OK

None of the tracks are present in the AccurateRip database

No errors occurred

End of status report

==== Log checksum F319F6FA0309817EC3B4FC92EBEE634A8570F821E6BFB156D5B2812AA2020BFF ====

 
Код:
Код: Выделить всё
-----------------------

DON'T MODIFY THIS FILE

-----------------------

PERFORMER: auCDtect Task Manager, ver. 1.6.0 RC1 build 1.6.0.1
Copyright (c) 2008-2010 y-soft. All rights reserved
http:/y-soft.org

ANALYZER: auCDtect: CD records authenticity detector, version 0.8.2
Copyright (c) 2004 Oleg Berngardt. All rights reserved.
Copyright (c) 2004 Alexander Djourik. All rights reserved.

FILE: 07 - PositiveNoise (A. Mochi Remix).flac
  Size: 37597363 Hash: 7511C485285B6300C8619EDA53A2D0A7 Accuracy: -m0
  Conclusion: CDDA 100%
  Signature: 7A04DB995950AC9376A0685BC8400693B4A177D6
FILE: 06 - PositiveNoise (Carl Craig Remix).flac
  Size: 68263075 Hash: 60D54294D3998DE2158B4BC232C6F8A6 Accuracy: -m0
  Conclusion: CDDA 100%
  Signature: 80AABC4E1380A8D2D55139F3224D789DD9BC3EAB
FILE: 05 - AlphaWave (Plastikman Acid House Remix by Richie Hawtin).flac
  Size: 137204185 Hash: 0B6D6F60235974C59B206AD9A80309D9 Accuracy: -m0
  Conclusion: CDDA 100%
  Signature: 3F33AE27FD1A90DAB711E349906C298066F1B4E2
FILE: 04 - Sirenes (System 7.1 Remix by Carl Craig).flac
  Size: 62567287 Hash: 2038D1731480E7D0C703ED37ED737A24 Accuracy: -m0
  Conclusion: CDDA 100%
  Signature: 5A279D7DAFF165D159EA12161A643A53F8BE06C0
FILE: 03 - Passion (Original Mix).flac
  Size: 61021538 Hash: 44332140CEACAD01F5A964BBBB3AF7DD Accuracy: -m0
  Conclusion: CDDA 100%
  Signature: AA821D5F7F061FECEB85CE416833E4FED0AFB68F
FILE: 02 - Space Bird (Dubfire Deep Space Remix).flac
  Size: 49480518 Hash: 5197044228F8604506600FA8DE7835EB Accuracy: -m0
  Conclusion: CDDA 100%
  Signature: BFFB6BA881DB2519AEF654A1D5E4DA1A1ED3F685
FILE: 01 - Planet 7 (James Holden Remix).flac
  Size: 60784219 Hash: D0DE8F40902101F85EA9256121C7954C Accuracy: -m0
  Conclusion: CDDA 100%
  Signature: 2DC47666EB1FD405B82461A688D79810BB0D8F57

 
Код:
Код: Выделить всё
-----------------------

DON'T MODIFY THIS FILE

-----------------------

PERFORMER: auCDtect Task Manager, ver. 1.6.0 RC1 build 1.6.0.1
Copyright (c) 2008-2010 y-soft. All rights reserved
http:/y-soft.org

ANALYZER: auCDtect: CD records authenticity detector, version 0.8.2
Copyright (c) 2004 Oleg Berngardt. All rights reserved.
Copyright (c) 2004 Alexander Djourik. All rights reserved.

FILE: 09 - Sunburst (Atahualpa Mix).flac
  Size: 45561811 Hash: 5CAB1AE1E78FC56161537BDBE7D5366D Accuracy: -m0
  Conclusion: CDDA 100%
  Signature: 645029275B8261EE68C8C5485BEBAC26BB945398
FILE: 08 - Chihiro 61298 (Evan Marc Remix).flac
  Size: 54346970 Hash: A4235290EDCF74E432111E6FC1B95C31 Accuracy: -m0
  Conclusion: CDDA 100%
  Signature: DBDCD2A662F97FB837AE70FEC4740F25C1C3A182
FILE: 07 - Eclipse (System 7 Club Remix).flac
  Size: 54848413 Hash: E6D6F5A90CD5DB900ECBC11C257C2B5E Accuracy: -m0
  Conclusion: CDDA 100%
  Signature: 8324614848F4ED67046310E97AAC8A14BA114846
FILE: 06 - Alphawave (System 7 2000 Remix).flac
  Size: 62362146 Hash: 66A78C3D2977B397BBC145ACD08DCB48 Accuracy: -m0
  Conclusion: CDDA 100%
  Signature: BB7255320645119A3423600B46549E3D355DD916
FILE: 05 - Alphawave (Bananadance Remix).flac
  Size: 54424320 Hash: F491E0AC4E42C70CB4D6952B4528F0AD Accuracy: -m0
  Conclusion: CDDA 100%
  Signature: FA3D1E1D9C3A4AF83AC3A08845C102C8D2FB0F7E
FILE: 04 - High Plains Drifter (Voyager Remix).flac
  Size: 83007774 Hash: 62C4EA3FA31D97F46E5B7783245426C7 Accuracy: -m0
  Conclusion: CDDA 100%
  Signature: 6C67BE36FDD4C56220C75F59C71CBA7FE1FE2F67
FILE: 03 - Planet 7 (Son Kite Remix).flac
  Size: 55859240 Hash: 997B9022FC9A9423849140897DDAA03D Accuracy: -m0
  Conclusion: CDDA 99%
  Signature: E50D20A084F504621DAD407B0501883117E4B28B
FILE: 02 - Space Bird (Liquid Soul Remix).flac
  Size: 51686314 Hash: 5BE50023912F3936C6D1C883ADFBE4B4 Accuracy: -m0
  Conclusion: CDDA 100%
  Signature: 7586C3B98A0B5B7F7D2F1D664DF4D564FABB0506
FILE: 01 - Interstate (Doc Scott Remix).flac
  Size: 58486395 Hash: CE180D036CF0DD8660C447B86150A4F9 Accuracy: -m0
  Conclusion: CDDA 99%
  Signature: 5AB43B4BC30DC71C024C161E30C5DA27F1BBACFD

 
Код:
Код: Выделить всё
REM DATE 2014
REM DISCID 40115807
REM COMMENT "ExactAudioCopy v1.0b3"
PERFORMER "System 7"
TITLE "Out"
REM DISCNUMBER 1
REM TOTALDISCS 2
REM GENRE "Techno, Acid, Trance, Tech House, Ambient"
FILE "01 - Planet 7 (James Holden Remix).flac" WAVE
  TRACK 01 AUDIO
    TITLE "Planet 7 (James Holden Remix)"
    PERFORMER "System 7"
    INDEX 01 00:00:00
FILE "02 - Space Bird (Dubfire Deep Space Remix).flac" WAVE
  TRACK 02 AUDIO
    TITLE "Space Bird (Dubfire Deep Space Remix)"
    PERFORMER "System 7"
    INDEX 01 00:00:00
FILE "03 - Passion (Original Mix).flac" WAVE
  TRACK 03 AUDIO
    TITLE "Passion (Original Mix)"
    PERFORMER "System 7"
    INDEX 01 00:00:00
FILE "04 - Sirenes (System 7.1 Remix by Carl Craig).flac" WAVE
  TRACK 04 AUDIO
    TITLE "Sirenes (System 7.1 Remix by Carl Craig)"
    PERFORMER "System 7"
    INDEX 01 00:00:00
FILE "05 - AlphaWave (Plastikman Acid House Remix by Richie Hawtin).flac" WAVE
  TRACK 05 AUDIO
    TITLE "AlphaWave (Plastikman Acid House Remix by Richie Hawtin)"
    PERFORMER "System 7"
    INDEX 01 00:00:00
FILE "06 - PositiveNoise (Carl Craig Remix).flac" WAVE
  TRACK 06 AUDIO
    TITLE "PositiveNoise (Carl Craig Remix)"
    PERFORMER "System 7"
    INDEX 01 00:00:00
FILE "07 - PositiveNoise (A. Mochi Remix).flac" WAVE
  TRACK 07 AUDIO
    TITLE "PositiveNoise (A. Mochi Remix)"
    PERFORMER "System 7"
    INDEX 01 00:00:00

Код:
Код: Выделить всё
REM DATE 2014
REM DISCID 7911D309
REM COMMENT "ExactAudioCopy v1.0b3"
PERFORMER "System 7"
TITLE "Out"
REM DISCNUMBER 2
REM TOTALDISCS 2
REM GENRE "Techno, Acid, Trance, Tech House, Ambient"
FILE "01 - Interstate (Doc Scott Remix).flac" WAVE
  TRACK 01 AUDIO
    TITLE "Interstate (Doc Scott Remix)"
    PERFORMER "System 7"
    INDEX 01 00:00:00
FILE "02 - Space Bird (Liquid Soul Remix).flac" WAVE
  TRACK 02 AUDIO
    TITLE "Space Bird (Liquid Soul Remix)"
    PERFORMER "System 7"
    INDEX 01 00:00:00
FILE "03 - Planet 7 (Son Kite Remix).flac" WAVE
  TRACK 03 AUDIO
    TITLE "Planet 7 (Son Kite Remix)"
    PERFORMER "System 7"
    INDEX 01 00:00:00
FILE "04 - High Plains Drifter (Voyager Remix).flac" WAVE
  TRACK 04 AUDIO
    TITLE "High Plains Drifter (Voyager Remix)"
    PERFORMER "System 7"
    INDEX 01 00:00:00
FILE "05 - Alphawave (Bananadance Remix).flac" WAVE
  TRACK 05 AUDIO
    TITLE "Alphawave (Bananadance Remix)"
    PERFORMER "System 7"
    INDEX 01 00:00:00
FILE "06 - Alphawave (System 7 2000 Remix).flac" WAVE
  TRACK 06 AUDIO
    TITLE "Alphawave (System 7 2000 Remix)"
    PERFORMER "System 7"
    INDEX 01 00:00:00
FILE "07 - Eclipse (System 7 Club Remix).flac" WAVE
  TRACK 07 AUDIO
    TITLE "Eclipse (System 7 Club Remix)"
    PERFORMER "Rovo"
    INDEX 01 00:00:00
FILE "08 - Chihiro 61298 (Evan Marc Remix).flac" WAVE
  TRACK 08 AUDIO
    TITLE "Chihiro 61298 (Evan Marc Remix)"
    PERFORMER "System 7"
    INDEX 01 00:00:00
FILE "09 - Sunburst (Atahualpa Mix).flac" WAVE
  TRACK 09 AUDIO
    TITLE "Sunburst (Atahualpa Mix)"
    PERFORMER "System 7"
    INDEX 01 00:00:00

Описание:
CD1:
01. Planet 7 (James Holden Remix) (09:44)
02. Space Bird (Dubfire Deep Space Remix) (08:38)
03. Passion (Original Mix) (08:19)
04. Sirenes (System 7.1 Remix by Carl Craig) (09:57)
05. AlphaWave (Plastikman Acid House Remix by Richie Hawtin) (20:05)
06. PositiveNoise (Carl Craig Remix) (11:50)
07. PositiveNoise (A. Mochi Remix) (05:26)
CD2:
01. Interstate (Doc Scott Remix) (08:18)
02. Space Bird (Liquid Soul Remix) (07:31)
03. Planet 7 (Son Kite Remix) (08:32)
04. High Plains Drifter (Voyager Remix) (12:11)
05. Alphawave (Bananadance Remix) (07:29)
06. Alphawave (System 7 2000 Remix) (09:57)
07. Rovo, Eclipse (System 7 Club Remix) (08:02)
08. Chihiro 61298 (Evan Marc Remix) (07:19)
09. Sunburst (Atahualpa Mix) (06:45)






Время раздачи: До 5 сидов
 
Не забывайте говорить Спасибо. Не уходите с раздачи!   
Торрент: Зарегистрирован [18 дек 2014, 02:19] Скачать торрент
Скачать торрент
[ Размер 21 КБ / Просмотров 32 ]
Статус:
Проверен
 
.torrent скачан: 3 раз
Хэш: cc3448a83b7be9c08e6ec681c007517d1b1e5231
Размер: 951.35 МБ (997 563 720 байт)
Стать Автором раздачи
 
 
Раздал: 6.67 ГБ
Скачал: 302.5 МБ
Ратио: 22.576
Сообщения: 374198
Зарегистрирован: 17 апр 2014, 11:05


  • Похожие торренты
    Ответы
    Просмотры
    Последнее сообщение

Вернуться в House, Techno, Electro, Minimal (транзит Lossless)

Ресурс не предоставляет электронные версии произведений, а занимается лишь коллекционированием и каталогизацией ссылок, присылаемых и публикуемых на форуме нашими читателями. Если вы являетесь правообладателем какого-либо представленного материала и не желаете чтобы ссылка на него находилась в нашем каталоге, свяжитесь с нами и мы незамедлительно удалим её. Файлы для обмена на трекере предоставлены пользователями сайта, и администрация не несёт ответственности за их содержание. Просьба не заливать файлы, защищенные авторскими правами, а также файлы нелегального содержания!
cron