Suren Unka - El Chupacabra (2014) [FLAC|Lossless] <Garage, House, Synth Pop, Alternative>

 
 Статистика раздачи 
Размер: 233.43 МБ   |  Зарегистрирован: 14 дек 2014, 19:16   |   .torrent скачан: 0 раз
Сидеров: 1  [ 0 байт/сек ]     Личеров: 0  [ 0 байт/сек ]  
  

Suren Unka - El Chupacabra (2014) [FLAC|Lossless] <Garage, House, Synth Pop, Alternative>

Сообщение Thistoll » 14 дек 2014, 19:16

Suren Unka - El Chupacabra (2014)


Год: 2014
Жанр: Garage, House, Synth Pop, Alternative
Лейбл: Suren Unka / TuneCore
Каталог#: None
Продолжительность: 00:37:02

Кодек: FLAC
Битрейт: Lossless
Тип рипа: tracks+.cue+log

Треклист:
01. Lyuba (03:18)
02. Early (03:40)
03. Weather Science (03:48)
04. Uvula (02:56)
05. Flee feat. Dahnu Graham (04:16)
06. Gyxis (02:24)
07. Alice (04:39)
08. 130 (03:32)
09. Nonbots (04:07)
10. Oryx (04:22)


Код:
Код: Выделить всё
Exact Audio Copy V1.0 beta 3 from 29. August 2011

EAC extraction logfile from 13. May 2014, 13:40

Suren Unka / El Chupacabra

Used drive  : HL-DT-STDVDRAM GH20LS10   Adapter: 0  ID: 0

Read mode               : Secure
Utilize accurate stream : Yes
Defeat audio cache      : Yes
Make use of C2 pointers : No

Read offset correction                      : 667
Overread into Lead-In and Lead-Out          : No
Fill up missing offset samples with silence : Yes
Delete leading and trailing silent blocks   : No
Null samples used in CRC calculations       : Yes
Used interface                              : Native Win32 interface for Win NT & 2000
Gap handling                                : Appended to previous track

Used output format              : User Defined Encoder
Selected bitrate                : 32 kBit/s
Quality                         : High
Add ID3 tag                     : No
Command line compressor         : C:\Program Files (x86)\FLAC Frontend\tools\flac.exe
Additional command line options : -8 -V -T "ARTIST=%artist%" -T "TITLE=%title%" -T "ALBUM=%albumtitle%" -T "DATE=%year%" -T "TRACKNUMBER=%tracknr%" -T "GENRE=%genre%" -T "PERFORMER=%albuminterpret%" -T "COMPOSER=%composer%" %haslyrics%--tag-from-file=LYRICS="%lyricsfile%"%haslyrics% -T "ALBUMARTIST=%albumartist%" -T "DISCNUMBER=%cdnumber%" -T "TOTALDISCS=%totalcds%" -T "TOTALTRACKS=%numtracks%" -T "COMMENT=%comment%" %source% -o %dest%

TOC of the extracted CD

     Track |   Start  |  Length  | Start sector | End sector
    ---------------------------------------------------------
        1  |  0:00.00 |  3:17.72 |         0    |    14846
        2  |  3:17.72 |  3:40.03 |     14847    |    31349
        3  |  6:58.00 |  3:48.27 |     31350    |    48476
        4  | 10:46.27 |  2:55.46 |     48477    |    61647
        5  | 13:41.73 |  4:16.07 |     61648    |    80854
        6  | 17:58.05 |  2:23.62 |     80855    |    91641
        7  | 20:21.67 |  4:38.66 |     91642    |   112557
        8  | 25:00.58 |  3:32.29 |    112558    |   128486
        9  | 28:33.12 |  4:07.36 |    128487    |   147047
       10  | 32:40.48 |  4:22.28 |    147048    |   166725

Track  1

     Filename C:\what.cd\Ripped\Suren Unka - El Chupacabra (2014) [FLAC]\01 - Lyuba.wav

     Pre-gap length  0:00:02.00

     Peak level 98.9 %
     Extraction speed 4.5 X
     Track quality 100.0 %
     Test CRC 3E963F3B
     Copy CRC 3E963F3B
     Track not present in AccurateRip database
     Copy OK

Track  2

     Filename C:\what.cd\Ripped\Suren Unka - El Chupacabra (2014) [FLAC]\02 - Early.wav

     Peak level 98.9 %
     Extraction speed 4.9 X
     Track quality 100.0 %
     Test CRC C6DE1826
     Copy CRC C6DE1826
     Track not present in AccurateRip database
     Copy OK

Track  3

     Filename C:\what.cd\Ripped\Suren Unka - El Chupacabra (2014) [FLAC]\03 - Weather Science.wav

     Peak level 98.9 %
     Extraction speed 5.4 X
     Track quality 100.0 %
     Test CRC E6109630
     Copy CRC E6109630
     Track not present in AccurateRip database
     Copy OK

Track  4

     Filename C:\what.cd\Ripped\Suren Unka - El Chupacabra (2014) [FLAC]\04 - Uvula.wav

     Peak level 98.9 %
     Extraction speed 4.4 X
     Track quality 99.9 %
     Test CRC 9F5B847D
     Copy CRC 9F5B847D
     Track not present in AccurateRip database
     Copy OK

Track  5

     Filename C:\what.cd\Ripped\Suren Unka - El Chupacabra (2014) [FLAC]\05 - Flee feat. Dahnu Graham.wav

     Peak level 98.9 %
     Extraction speed 6.3 X
     Track quality 100.0 %
     Test CRC 1039E7C9
     Copy CRC 1039E7C9
     Track not present in AccurateRip database
     Copy OK

Track  6

     Filename C:\what.cd\Ripped\Suren Unka - El Chupacabra (2014) [FLAC]\06 - Gyxis.wav

     Peak level 98.9 %
     Extraction speed 6.0 X
     Track quality 100.0 %
     Test CRC 00C1A7D0
     Copy CRC 00C1A7D0
     Track not present in AccurateRip database
     Copy OK

Track  7

     Filename C:\what.cd\Ripped\Suren Unka - El Chupacabra (2014) [FLAC]\07 - Alice.wav

     Peak level 98.9 %
     Extraction speed 5.9 X
     Track quality 99.9 %
     Test CRC 6FE6A977
     Copy CRC 6FE6A977
     Track not present in AccurateRip database
     Copy OK

Track  8

     Filename C:\what.cd\Ripped\Suren Unka - El Chupacabra (2014) [FLAC]\08 - 130.wav

     Peak level 98.9 %
     Extraction speed 6.9 X
     Track quality 100.0 %
     Test CRC 3FF7DDB4
     Copy CRC 3FF7DDB4
     Track not present in AccurateRip database
     Copy OK

Track  9

     Filename C:\what.cd\Ripped\Suren Unka - El Chupacabra (2014) [FLAC]\09 - Nonbots.wav

     Pre-gap length  0:00:00.81

     Peak level 98.9 %
     Extraction speed 7.5 X
     Track quality 100.0 %
     Test CRC B21DBCDC
     Copy CRC B21DBCDC
     Track not present in AccurateRip database
     Copy OK

Track 10

     Filename C:\what.cd\Ripped\Suren Unka - El Chupacabra (2014) [FLAC]\10 - Oryx.wav

     Peak level 98.9 %
     Extraction speed 7.9 X
     Track quality 100.0 %
     Test CRC 7752BE1D
     Copy CRC 7752BE1D
     Track not present in AccurateRip database
     Copy OK

None of the tracks are present in the AccurateRip database

No errors occurred

End of status report

---- CUETools DB Plugin V2.1.3

[CTDB TOCID: RP693x8HbRj8azKfimLJcVROeZk-] disk not present in database, Submit result: RP693x8HbRj8azKfimLJcVROeZk- has been uploaded

==== Log checksum F23D385CF02C03631B0A28D6281B3B3493D7BBF470030BFAB9ED32A55D093930 ====

Код:
Код: Выделить всё
-----------------------

DON'T MODIFY THIS FILE

-----------------------

PERFORMER: auCDtect Task Manager, ver. 1.6.0 RC1 build 1.6.0.1
Copyright (c) 2008-2010 y-soft. All rights reserved
http:/y-soft.org

ANALYZER: auCDtect: CD records authenticity detector, version 0.8.2
Copyright (c) 2004 Oleg Berngardt. All rights reserved.
Copyright (c) 2004 Alexander Djourik. All rights reserved.

FILE: 10 - Oryx.flac
  Size: 29521377 Hash: 1FA0924BD80FCBF3B0B97AE734969BE7 Accuracy: -m0
  Conclusion: CDDA 94%
  Signature: 9DC1301957DCEE98E5B87E6B4BDFFEDE9FE9B86A
FILE: 09 - Nonbots.flac
  Size: 25306804 Hash: 47A241A6043E087947133061B2E99052 Accuracy: -m0
  Conclusion: CDDA 100%
  Signature: ABB8EE37EBD1287909D033781F6653C6447764A4
FILE: 08 - 130.flac
  Size: 23573841 Hash: AAC666BD1378A93EAB16AD7F63DA4E15 Accuracy: -m0
  Conclusion: CDDA 100%
  Signature: 0297263C9DB1F5686141F665E30BED6C63752E78
FILE: 07 - Alice.flac
  Size: 28910454 Hash: 41F09D4A803AA7F228BBD9815536068E Accuracy: -m0
  Conclusion: CDDA 58%
  Signature: 37858FD7EE350529722380153328081A28E1C7DA
FILE: 06 - Gyxis.flac
  Size: 16478434 Hash: E53624A6821F88D0F1E4A4784459C688 Accuracy: -m0
  Conclusion: CDDA 100%
  Signature: AA222EEBED8DFFBF4ABD9E482E28EE416EA2EBBE
FILE: 05 - Flee feat. Dahnu Graham.flac
  Size: 28884005 Hash: 9631C56B03924F12ED84A0249035F6D5 Accuracy: -m0
  Conclusion: CDDA 100%
  Signature: C30D98E6EB06917439AD69CB90886A7EFC2BD15C
FILE: 04 - Uvula.flac
  Size: 20977171 Hash: 45EAD9DE481CDAED35C59135C5E16F55 Accuracy: -m0
  Conclusion: CDDA 100%
  Signature: 8A1EAA0C515A5437374C71E35431111081CBBFB5
FILE: 03 - Weather Science.flac
  Size: 27105067 Hash: BA11D80BEB84767816D4F70CD154247F Accuracy: -m0
  Conclusion: CDDA 100%
  Signature: CB63C3DF8F642D224A52E2DCDF5A05BE31D7E3AF
FILE: 02 - Early.flac
  Size: 23313189 Hash: 3D232B183CFE010C7B4463E6F8B0D5D6 Accuracy: -m0
  Conclusion: CDDA 100%
  Signature: 72FCE2B7D5632AD932E59F2CE7E10793078EAE5B
FILE: 01 - Lyuba.flac
  Size: 19357567 Hash: 90C916D02D9B4E8E3698B77AFAEDA7CF Accuracy: -m0
  Conclusion: CDDA 100%
  Signature: 945D12F0C3FFE68D5FBEE73DDFDD4FC4CEE406C3

Код:
Код: Выделить всё
REM GENRE "Garage, House, Synth Pop, Alternative"
REM DATE 2014
REM DISCID 7308AF0A
REM COMMENT "ExactAudioCopy v1.0b3"
PERFORMER "Suren Unka"
TITLE "El Chupacabra"
FILE "01 - Lyuba.flac" WAVE
  TRACK 01 AUDIO
    TITLE "Lyuba"
    PERFORMER "Suren Unka"
    FLAGS DCP
    INDEX 01 00:00:00
FILE "02 - Early.flac" WAVE
  TRACK 02 AUDIO
    TITLE "Early"
    PERFORMER "Suren Unka"
    FLAGS DCP
    INDEX 01 00:00:00
FILE "03 - Weather Science.flac" WAVE
  TRACK 03 AUDIO
    TITLE "Weather Science"
    PERFORMER "Suren Unka"
    FLAGS DCP
    INDEX 01 00:00:00
FILE "04 - Uvula.flac" WAVE
  TRACK 04 AUDIO
    TITLE "Uvula"
    PERFORMER "Suren Unka"
    FLAGS DCP
    INDEX 01 00:00:00
FILE "05 - Flee feat. Dahnu Graham.flac" WAVE
  TRACK 05 AUDIO
    TITLE "Flee feat. Dahnu Graham"
    PERFORMER "Suren Unka"
    FLAGS DCP
    INDEX 01 00:00:00
FILE "06 - Gyxis.flac" WAVE
  TRACK 06 AUDIO
    TITLE "Gyxis"
    PERFORMER "Suren Unka"
    FLAGS DCP
    INDEX 01 00:00:00
FILE "07 - Alice.flac" WAVE
  TRACK 07 AUDIO
    TITLE "Alice"
    PERFORMER "Suren Unka"
    FLAGS DCP
    INDEX 01 00:00:00
FILE "08 - 130.flac" WAVE
  TRACK 08 AUDIO
    TITLE "130"
    PERFORMER "Suren Unka"
    FLAGS DCP
    INDEX 01 00:00:00
  TRACK 09 AUDIO
    TITLE "Nonbots"
    PERFORMER "Suren Unka"
    FLAGS DCP
    INDEX 00 03:31:43
FILE "09 - Nonbots.flac" WAVE
    INDEX 01 00:00:00
FILE "10 - Oryx.flac" WAVE
  TRACK 10 AUDIO
    TITLE "Oryx"
    PERFORMER "Suren Unka"
    FLAGS DCP
    INDEX 01 00:00:00



Время раздачи: До 5 сидов

Код: Выделить всё
[b]Поглощение/вытеснение [/b]
[b]Только с согласия релизера[/b]
[b][u][i]Pashketan[/b][/i][/u]
 
Не забывайте говорить Спасибо. Не уходите с раздачи!   
Торрент: Зарегистрирован [14 дек 2014, 19:16] Скачать торрент
Скачать торрент
[ Размер 19.65 КБ / Просмотров 16 ]
Статус:
Проверен
 
.torrent скачан: 0 раз
Хэш: 24e2284ddb8f9cb12c631310711912b33c520e60
Размер: 233.43 МБ (244 768 313 байт)
Стать Автором раздачи
 
 
Раздал: 6.67 ГБ
Скачал: 302.5 МБ
Ратио: 22.576
Сообщения: 374198
Зарегистрирован: 17 апр 2014, 11:05


  • Похожие торренты
    Ответы
    Просмотры
    Последнее сообщение

Вернуться в House, Techno, Electro, Minimal (транзит Lossless)

Ресурс не предоставляет электронные версии произведений, а занимается лишь коллекционированием и каталогизацией ссылок, присылаемых и публикуемых на форуме нашими читателями. Если вы являетесь правообладателем какого-либо представленного материала и не желаете чтобы ссылка на него находилась в нашем каталоге, свяжитесь с нами и мы незамедлительно удалим её. Файлы для обмена на трекере предоставлены пользователями сайта, и администрация не несёт ответственности за их содержание. Просьба не заливать файлы, защищенные авторскими правами, а также файлы нелегального содержания!
cron