VA - The Best Sound N 6 (2014) HDRemux [H.264,1080p]

 
 Статистика раздачи 
Размер: 1.82 ГБ   |  Зарегистрирован: 13 дек 2014, 22:01   |   .torrent скачан: 0 раз
Сидеров: 1  [ 0 байт/сек ]     Личеров: 0  [ 0 байт/сек ]  
  

VA - The Best Sound N 6 (2014) HDRemux [H.264,1080p]

Сообщение Thistoll » 13 дек 2014, 22:01

VA - The Best Sound N 6 (2014) HDRemux [H.264,1080p]

Год выпуска: 2014
Жанр: Pop

Контейнер:: m2ts
Видеокодек: H.264
Битрейт видео: ~8000-10000 Kbps
Размер кадра: 1920x1080p (16:9), 23.976 fps
Качество видео: HDRemux
Аудиокодек: PCM
Битрейт аудио: 48 KHz, PCM, 2ch stereo, ~1536kbps

Треклист:
1.Antonia-Jameia (2012), 00:03:57
2.Christina Perri - Human (2014), 00:04:21
3.Nick Jonas - Chains (2014), 00:03:42
4.Selena Gomez - The Heart Wants What It Wants (2014), 00:04:30
5.Tove Styrke - Even If I'm Loud It Doesn't Mean I'm Talking To You (2014), 00:03:04
General
ID : 1 (0x1)
Complete name : Antonia-Jameia (2012).m2ts
Format : BDAV
Format/Info : Blu-ray Video
File size : 347 MiB
Duration : 3mn 57s
Overall bit rate mode : Variable
Overall bit rate : 12.2 Mbps
Maximum Overall bit rate : 35.5 Mbps

Video
ID : 4113 (0x1011)
Menu ID : 1 (0x1)
Format : AVC
Format/Info : Advanced Video Codec
Format profile : High 4:2:2@L5.0
Format settings, CABAC : Yes
Format settings, ReFrames : 8 frames
Codec ID : 27
Duration : 3mn 57s
Bit rate mode : Variable
Bit rate : 10 000 Kbps
Maximum bit rate : 40.0 Mbps
Width : 1 920 pixels
Height : 1 080 pixels
Display aspect ratio : 16:9
Frame rate mode : Variable
Color space : YUV
Chroma subsampling : 4:2:2
Bit depth : 8 bits
Scan type : Progressive
Stream size : 289 MiB (83%)
Writing library : x264 core 130
Encoding settings : cabac=1 / ref=8 / deblock=1:0:0 / analyse=0x3:0x133 / me=umh / subme=9 / psy=1 / psy_rd=1.00:0.00 / mixed_ref=1 / me_range=16 / chroma_me=1 / trellis=2 / 8x8dct=1 / cqm=0 / deadzone=21,11 / fast_pskip=1 / chroma_qp_offset=-2 / threads=3 / lookahead_threads=1 / sliced_threads=0 / nr=0 / decimate=1 / interlaced=0 / bluray_compat=0 / constrained_intra=0 / bframes=3 / b_pyramid=2 / b_adapt=2 / b_bias=0 / direct=3 / weightb=1 / open_gop=0 / weightp=2 / keyint=250 / keyint_min=23 / scenecut=40 / intra_refresh=0 / rc_lookahead=60 / rc=abr / mbtree=1 / bitrate=10000 / ratetol=1.0 / qcomp=0.60 / qpmin=0 / qpmax=69 / qpstep=4 / ip_ratio=1.40 / aq=1:1.0

Audio
ID : 4352 (0x1100)
Menu ID : 1 (0x1)
Format : PCM
Format settings, Endianness : Big
Format settings, Sign : Signed
Muxing mode : Blu-ray
Codec ID : 128
Duration : 3mn 57s
Bit rate mode : Constant
Bit rate : 1 536 Kbps
Channel(s) : 2 channels
Channel positions : Front: L R
Sampling rate : 48.0 KHz
Bit depth : 16 bits
Stream size : 43.5 MiB (13%)

General
ID : 1 (0x1)
Complete name : Christina Perri - Human (2014).m2ts
Format : BDAV
Format/Info : Blu-ray Video
File size : 493 MiB
Duration : 4mn 21s
Overall bit rate mode : Variable
Overall bit rate : 15.8 Mbps
Maximum Overall bit rate : 35.5 Mbps

Video
ID : 4113 (0x1011)
Menu ID : 1 (0x1)
Format : AVC
Format/Info : Advanced Video Codec
Format profile :
Format settings, CABAC : No
Format settings, ReFrames : 2 frames
Format settings, GOP : M=2, N=24
Codec ID : 27
Duration : 4mn 22s
Bit rate : 13.6 Mbps
Width : 1 920 pixels
Height : 1 080 pixels
Display aspect ratio : 16:9
Color space : YUV
Chroma subsampling : 4:2:0
Bit depth : 8 bits
Scan type : Progressive
Stream size : 426 MiB (86%)
Language : English
Color primaries : BT.709
Transfer characteristics : BT.709
Matrix coefficients : BT.709

Audio
ID : 4352 (0x1100)
Menu ID : 1 (0x1)
Format : PCM
Format settings, Endianness : Big
Format settings, Sign : Signed
Muxing mode : Blu-ray
Codec ID : 128
Duration : 4mn 21s
Bit rate mode : Constant
Bit rate : 1 536 Kbps
Channel(s) : 2 channels
Channel positions : Front: L R
Sampling rate : 48.0 KHz
Bit depth : 16 bits
Stream size : 47.9 MiB (10%)

General
ID : 1 (0x1)
Complete name : Nick Jonas - Chains (2014).m2ts
Format : BDAV
Format/Info : Blu-ray Video
File size : 328 MiB
Duration : 3mn 42s
Overall bit rate mode : Variable
Overall bit rate : 12.3 Mbps
Maximum Overall bit rate : 35.5 Mbps

Video
ID : 4113 (0x1011)
Menu ID : 1 (0x1)
Format : AVC
Format/Info : Advanced Video Codec
Format profile : High 4:2:2@L5.0
Format settings, CABAC : Yes
Format settings, ReFrames : 8 frames
Codec ID : 27
Duration : 3mn 42s
Bit rate mode : Variable
Bit rate : 10.1 Mbps
Maximum bit rate : 40.0 Mbps
Width : 1 920 pixels
Height : 1 080 pixels
Display aspect ratio : 16:9
Frame rate mode : Variable
Color space : YUV
Chroma subsampling : 4:2:2
Bit depth : 8 bits
Scan type : Progressive
Stream size : 274 MiB (84%)
Writing library : x264 core 130
Encoding settings : cabac=1 / ref=8 / deblock=1:0:0 / analyse=0x3:0x133 / me=umh / subme=9 / psy=1 / psy_rd=1.00:0.00 / mixed_ref=1 / me_range=16 / chroma_me=1 / trellis=2 / 8x8dct=1 / cqm=0 / deadzone=21,11 / fast_pskip=1 / chroma_qp_offset=-2 / threads=3 / lookahead_threads=1 / sliced_threads=0 / nr=0 / decimate=1 / interlaced=0 / bluray_compat=0 / constrained_intra=0 / bframes=3 / b_pyramid=2 / b_adapt=2 / b_bias=0 / direct=3 / weightb=1 / open_gop=0 / weightp=2 / keyint=250 / keyint_min=23 / scenecut=40 / intra_refresh=0 / rc_lookahead=60 / rc=abr / mbtree=1 / bitrate=10050 / ratetol=1.0 / qcomp=0.60 / qpmin=0 / qpmax=69 / qpstep=4 / ip_ratio=1.40 / aq=1:1.0

Audio
ID : 4352 (0x1100)
Menu ID : 1 (0x1)
Format : PCM
Format settings, Endianness : Big
Format settings, Sign : Signed
Muxing mode : Blu-ray
Codec ID : 128
Duration : 3mn 42s
Bit rate mode : Constant
Bit rate : 1 536 Kbps
Channel(s) : 2 channels
Channel positions : Front: L R
Sampling rate : 48.0 KHz
Bit depth : 16 bits
Stream size : 40.8 MiB (12%)

General
ID : 1 (0x1)
Complete name : Selena Gomez - The Heart Wants What It Wants (2014).m2ts
Format : BDAV
Format/Info : Blu-ray Video
File size : 426 MiB
Duration : 4mn 30s
Overall bit rate mode : Variable
Overall bit rate : 13.2 Mbps
Maximum Overall bit rate : 35.5 Mbps

Video
ID : 4113 (0x1011)
Menu ID : 1 (0x1)
Format : AVC
Format/Info : Advanced Video Codec
Format profile :
Format settings, CABAC : Yes
Format settings, ReFrames : 8 frames
Codec ID : 27
Duration : 4mn 31s
Bit rate mode : Variable
Bit rate : 10.1 Mbps
Maximum bit rate : 40.0 Mbps
Width : 1 920 pixels
Height : 1 080 pixels
Display aspect ratio : 16:9
Frame rate mode : Variable
Color space : YUV
Chroma subsampling : 4:2:0
Bit depth : 8 bits
Scan type : Progressive
Stream size : 335 MiB (79%)
Writing library : x264 core 130
Encoding settings : cabac=1 / ref=8 / deblock=1:0:0 / analyse=0x3:0x133 / me=umh / subme=9 / psy=1 / psy_rd=1.00:0.00 / mixed_ref=1 / me_range=16 / chroma_me=1 / trellis=2 / 8x8dct=1 / cqm=0 / deadzone=21,11 / fast_pskip=1 / chroma_qp_offset=-2 / threads=3 / lookahead_threads=1 / sliced_threads=0 / nr=0 / decimate=1 / interlaced=0 / bluray_compat=0 / constrained_intra=0 / bframes=3 / b_pyramid=2 / b_adapt=2 / b_bias=0 / direct=3 / weightb=1 / open_gop=0 / weightp=2 / keyint=250 / keyint_min=23 / scenecut=40 / intra_refresh=0 / rc_lookahead=60 / rc=abr / mbtree=1 / bitrate=10110 / ratetol=1.0 / qcomp=0.60 / qpmin=0 / qpmax=69 / qpstep=4 / ip_ratio=1.40 / aq=1:1.0

Audio
ID : 4352 (0x1100)
Menu ID : 1 (0x1)
Format : PCM
Format settings, Endianness : Big
Format settings, Sign : Signed
Muxing mode : Blu-ray
Codec ID : 128
Duration : 4mn 30s
Bit rate mode : Constant
Bit rate : 2 304 Kbps
Channel(s) : 2 channels
Channel positions : Front: L R
Sampling rate : 48.0 KHz
Bit depth : 24 bits
Stream size : 74.4 MiB (17%)

General
ID : 1 (0x1)
Complete name : Tove Styrke - Even If I'm Loud It Doesn't Mean I'm Talking To You (2014).m2ts
Format : BDAV
Format/Info : Blu-ray Video
File size : 272 MiB
Duration : 3mn 4s
Overall bit rate mode : Variable
Overall bit rate : 12.3 Mbps
Maximum Overall bit rate : 35.5 Mbps

Video
ID : 4113 (0x1011)
Menu ID : 1 (0x1)
Format : AVC
Format/Info : Advanced Video Codec
Format profile :
Format settings, CABAC : Yes
Format settings, ReFrames : 8 frames
Codec ID : 27
Duration : 3mn 5s
Bit rate mode : Variable
Bit rate : 10.0 Mbps
Maximum bit rate : 40.0 Mbps
Width : 1 920 pixels
Height : 1 080 pixels
Display aspect ratio : 16:9
Frame rate mode : Variable
Color space : YUV
Chroma subsampling : 4:2:0
Bit depth : 8 bits
Scan type : Progressive
Stream size : 227 MiB (84%)
Writing library : x264 core 130
Encoding settings : cabac=1 / ref=8 / deblock=1:0:0 / analyse=0x3:0x133 / me=umh / subme=9 / psy=1 / psy_rd=1.00:0.00 / mixed_ref=1 / me_range=16 / chroma_me=1 / trellis=2 / 8x8dct=1 / cqm=0 / deadzone=21,11 / fast_pskip=1 / chroma_qp_offset=-2 / threads=3 / lookahead_threads=1 / sliced_threads=0 / nr=0 / decimate=1 / interlaced=0 / bluray_compat=0 / constrained_intra=0 / bframes=3 / b_pyramid=2 / b_adapt=2 / b_bias=0 / direct=3 / weightb=1 / open_gop=0 / weightp=2 / keyint=250 / keyint_min=23 / scenecut=40 / intra_refresh=0 / rc_lookahead=60 / rc=abr / mbtree=1 / bitrate=10005 / ratetol=1.0 / qcomp=0.60 / qpmin=0 / qpmax=69 / qpstep=4 / ip_ratio=1.40 / aq=1:1.0

Audio
ID : 4352 (0x1100)
Menu ID : 1 (0x1)
Format : PCM
Format settings, Endianness : Big
Format settings, Sign : Signed
Muxing mode : Blu-ray
Codec ID : 128
Duration : 3mn 4s
Bit rate mode : Constant
Bit rate : 1 536 Kbps
Channel(s) : 2 channels
Channel positions : Front: L R
Sampling rate : 48.0 KHz
Bit depth : 16 bits
Stream size : 33.9 MiB (12%)
Скриншоты:


Время раздачи: До 5 первых раздач, далее по возможности
 
Не забывайте говорить Спасибо. Не уходите с раздачи!   
Торрент: Зарегистрирован [13 дек 2014, 22:01] Скачать торрент
Скачать торрент
[ Размер 19.27 КБ / Просмотров 13 ]
Статус:
Проверен
 
.torrent скачан: 0 раз
Хэш: 82faa06cb2d19a4e304d0deb75de515679d23687
Размер: 1.82 ГБ (1 957 005 312 байт)
Стать Автором раздачи
 
 
Раздал: 6.67 ГБ
Скачал: 302.5 МБ
Ратио: 22.576
Сообщения: 374198
Зарегистрирован: 17 апр 2014, 11:05


  • Похожие торренты
    Ответы
    Просмотры
    Последнее сообщение

Вернуться в Музыкальные клипы (транзит)

Ресурс не предоставляет электронные версии произведений, а занимается лишь коллекционированием и каталогизацией ссылок, присылаемых и публикуемых на форуме нашими читателями. Если вы являетесь правообладателем какого-либо представленного материала и не желаете чтобы ссылка на него находилась в нашем каталоге, свяжитесь с нами и мы незамедлительно удалим её. Файлы для обмена на трекере предоставлены пользователями сайта, и администрация не несёт ответственности за их содержание. Просьба не заливать файлы, защищенные авторскими правами, а также файлы нелегального содержания!
cron