Selena Gomez - The Heart Wants What It Wants (2014) BDRip

 
 Статистика раздачи 
Размер: 568.73 МБ   |  Зарегистрирован: 13 дек 2014, 17:50   |   .torrent скачан: 0 раз
Сидеров: 1  [ 0 байт/сек ]     Личеров: 0  [ 0 байт/сек ]  
  

Selena Gomez - The Heart Wants What It Wants (2014) BDRip

Сообщение Thistoll » 13 дек 2014, 17:50

Selena Gomez - The Heart Wants What It Wants (2014) BDRip [h.264,1080p]

Исполнитель: Selena Gomez
Год выпуска: 2014
Жанр: Pop
Продолжительность: 00:04:31

Описание: Популярная американская актриса и певица Селена Гомес (Selena Gomez) представила публике новый клип на песню The Heart Wants What It Wants. Лирическая композиция о разбитом сердце сопровождается черно-белым видеорядом, переполненным страданий и слез певицы.

Качество видео: BDRip [h.264,1080p]
Видеокодек: m2ts AVC/H.264
Битрейт видео: ~15,4 Мбит/с
Размер кадра: 1920x1080 (16:9), 25,000 кадров/с
Аудиокодек: PCM, 2 ch, stereo
Битрейт аудио: 1536 Кбит/с
Код:
Код: Выделить всё
Общее
Идентификатор                            : 1 (0x1)
Полное имя                               : Selena Gomez - The Heart Wants What It Wants.m2ts
Формат                                   : BDAV
Формат/Информация                        : Blu-ray Video
Размер файла                             : 569 Мбайт
Продолжительность                        : 4 м. 31 с.
Режим общего битрейта                    : Переменный
Общий поток                              : 17,6 Мбит/сек
Максимальный общий битрейт               : 35,5 Мбит/сек

Видео
Идентификатор                            : 4113 (0x1011)
Идентификатор меню                       : 1 (0x1)
Формат                                   : AVC
Формат/Информация                        : Advanced Video Codec
Профиль формата                          :
Параметр CABAC формата                   : Нет
Параметр ReFrames формата                : 1 кадр
Параметр GOP формата                     : M=1, N=12
Идентификатор кодека                     : 27
Продолжительность                        : 4 м. 31 с.
Вид битрейта                             : Переменный
Битрейт                                  : 15,4 Мбит/сек
Максимальный битрейт                     : 40,0 Мбит/сек
Ширина                                   : 1920 пикселей
Высота                                   : 1080 пикселей
Соотношение сторон                       : 16:9
Частота кадров                           : 25,000 кадров/сек
Цветовое пространство                    : YUV
Субдискретизация насыщенности            : 4:2:0
Битовая глубина                          : 8 бит
Тип развёртки                            : Прогрессивная
Бит/(Пиксели*Кадры)                      : 0.296
Размер потока                            : 496 Мбайт (87%)
Язык                                     : English

Аудио
Идентификатор                            : 4352 (0x1100)
Идентификатор меню                       : 1 (0x1)
Формат                                   : PCM
Параметр Endianness формата              : Big
Параметр Sign формата                    : Signed
Режим смешивания                         : Blu-ray
Идентификатор кодека                     : 128
Продолжительность                        : 4 м. 30 с.
Вид битрейта                             : Постоянный
Битрейт                                  : 1536 Кбит/сек
Каналы                                   : 2 канала
Расположение каналов                     : Front: L R
Частота                                  : 48,0 КГц
Битовая глубина                          : 16 бит
Размер потока                            : 49,6 Мбайт (9%)
Язык                                     : English
Скриншоты:
 
Не забывайте говорить Спасибо. Не уходите с раздачи!   
Торрент: Зарегистрирован [13 дек 2014, 17:50] Скачать торрент
Скачать торрент
[ Размер 11.8 КБ / Просмотров 15 ]
Статус:
Проверен
 
.torrent скачан: 0 раз
Хэш: e6ad438e7fefb8d09cec12124e2db882380739b8
Размер: 568.73 МБ (596 355 072 байт)
Стать Автором раздачи
 
 
Раздал: 6.67 ГБ
Скачал: 302.5 МБ
Ратио: 22.576
Сообщения: 374198
Зарегистрирован: 17 апр 2014, 11:05


  • Похожие торренты
    Ответы
    Просмотры
    Последнее сообщение

Вернуться в Музыкальные клипы (транзит)

Ресурс не предоставляет электронные версии произведений, а занимается лишь коллекционированием и каталогизацией ссылок, присылаемых и публикуемых на форуме нашими читателями. Если вы являетесь правообладателем какого-либо представленного материала и не желаете чтобы ссылка на него находилась в нашем каталоге, свяжитесь с нами и мы незамедлительно удалим её. Файлы для обмена на трекере предоставлены пользователями сайта, и администрация не несёт ответственности за их содержание. Просьба не заливать файлы, защищенные авторскими правами, а также файлы нелегального содержания!
cron