Копы - новобранцы / Rookie Blue (5 сезон: 6 серии из ???) (MP4 | 1280х720) (2014) <HDTV [H.264] > | Diva Universal (обновляемая)

 
 Статистика раздачи 
Размер: 3.37 ГБ   |  Зарегистрирован: 12 дек 2014, 00:06   |   .torrent скачан: 1 раз
Сидеров: 1  [ 0 байт/сек ]     Личеров: 1  [ 0 байт/сек ]  
  

Копы - новобранцы / Rookie Blue (5 сезон: 6 серии из ???) (MP4 | 1280х720) (2014) <HDTV [H.264] > | Diva Universal (обновляемая)

Сообщение Thistoll » 12 дек 2014, 00:06

Копы - новобранцы / Rookie Blue (5 сезон: 6 серии из ???) (2014) HDTV

«Training's over. Life begins.»
Год выпуска: 2014
Жанр: Криминал, Драма

Перевод: Многоголосый закадровый, профессиональный
Озвучка / Автор перевода: Diva Universal
Вид субтитров: Отсутствуют



Дата мировой премьеры: 24 июня 2010
Дата российской премьеры: 19 сентября 2010

Режиссер: Дэвид Уэллингтон, Джон Фоусет, Стив ДиМарко
Актеры: Мисси Перегрим, Энука Окума, Шарлотта Салливан, Бен Басс, Грегори Смит, Трэвис Милн, Эрик Джонсон, Мэтт Гордон, Ноам Дженкинс, Мелани Николллз-Кинг, Лайрик Бент, Аарон Абрамс, Камилль Салливан, Энтони Юлк, Эйдан Дивайн

Описание фильма:
Драма о пяти копах-новичках, которым приходится изучать основы профессии, работая полицейскими в большом городе. Любая ошибка может стать смертельной. Нам покажут, как пятеро главных героев учились в полицейской академии. А теперь они вместе работают. И первое, что им придется узнать — никакая академия не подготовит их к жизни. Четвертый сезон начинается спустя полгода после того, как Энди и Ник уехали для работы под прикрытием. Вместе с ними мы возвращаемся в 15 участок и понимаем, что все изменилось. Приспособиться к новой обстановке, держать удар... постоянные перемены, и если не приспособишься, останешься позади. Поэтому, вернувшись и узнав, что Сэм – теперь детектив и продвинулся не только в профессиональном, но и личном плане, Энди придется найти способ приспособиться. В прошлом сезоне наши офицеры получили то, что хотели, и им пришлось иметь дело с последствиями. В этом году им придется столкнуться с переменами и научиться приспосабливаться, принимая серьезные и смелые решения.

Продолжительность: ~ 00:43:00
Качество видео: HDTV

Видеокодек: MPEG-4 (AVC)
Битрейт видео: ~1 800 Kbps
Размер кадра: 1280х720
Аудиокодек: AAC
Битрейт аудио: 128 Kbps, 2 ch
General
Complete name : Rookie.Blue.s05e01.mp4
Format : MPEG-4
Format profile : Base Media
Codec ID : isom
File size : 588 MiB
Duration : 42mn 56s
Overall bit rate : 1 916 Kbps
Writing application : Lavf54.59.106

Video
ID : 1
Format : AVC
Format/Info : Advanced Video Codec
Format profile :
Format settings, CABAC : Yes
Format settings, ReFrames : 4 frames
Format settings, GOP : M=2, N=49
Codec ID : avc1
Codec ID/Info : Advanced Video Coding
Duration : 42mn 56s
Duration_LastFrame : -22ms
Bit rate mode : Variable
Bit rate : 1 800 Kbps
Width : 1 280 pixels
Height : 720 pixels
Display aspect ratio : 16:9
Frame rate mode : Constant
Frame rate : 25.000 fps
Color space : YUV
Chroma subsampling : 4:2:0
Bit depth : 8 bits
Scan type : Progressive
Bits/(Pixel*Frame) : 0.078
Stream size : 547 MiB (93%)
Writing library : x264 core 129
Encoding settings : cabac=1 / ref=3 / deblock=1:0:0 / analyse=0x3:0x113 / me=hex / subme=7 / psy=1 / psy_rd=1.00:0.00 / mixed_ref=1 / me_range=16 / chroma_me=1 / trellis=1 / 8x8dct=1 / cqm=0 / deadzone=21,11 / fast_pskip=1 / chroma_qp_offset=-2 / threads=24 / lookahead_threads=4 / sliced_threads=0 / nr=0 / decimate=1 / interlaced=0 / bluray_compat=0 / constrained_intra=0 / bframes=3 / b_pyramid=2 / b_adapt=1 / b_bias=0 / direct=1 / weightb=1 / open_gop=0 / weightp=2 / keyint=250 / keyint_min=25 / scenecut=40 / intra_refresh=0 / rc_lookahead=40 / rc=abr / mbtree=1 / bitrate=1800 / ratetol=1.0 / qcomp=0.60 / qpmin=0 / qpmax=69 / qpstep=4 / ip_ratio=1.40 / aq=1:1.00

Audio
ID : 2
Format : AAC
Format/Info : Advanced Audio Codec
Format profile : LC
Codec ID : 40
Duration : 42mn 56s
Bit rate mode : Constant
Bit rate : 128 Kbps
Channel(s) : 2 channels
Channel positions : Front: L R
Sampling rate : 44.1 KHz
Compression mode : Lossy
Stream size : 39.3 MiB (7%)
Language : Russian
Скриншоты:


Внимание! Раздача ведётся путём добавления новых серий!
Внимание! Раздача ведётся путём добавления новых серий; при каждом добавлении создаётся новый торрент.
Чтобы начать докачку новой серии, пользователям необходимо сделать следующее:
(1) остановить скачивание;
(2) удалить старый торрент у себя из клиента (старые серии удалять не надо);
(3) скачать новый торрент и запустить его у себя в клиенте вместо старого, при этом указать клиенту путь в старую папку куда и должно происходить скачивание новых серий.Ваш клиент при этом должен произвести хеширование (проверку) старой папки (если не производит сам - помогите ему сделать это), и будет докачивать только те серии которых у вас ещё нет. Старые серии при этом не удаляются, а продолжают раздаваться!Eсли вы уже удалили старые серии, то предотвратить повторную закачку старых серий можно, отжав галочку в соответствующих местах при запуске нового торрента.
Добавлены 4-6 серии сезона, перекачайте торрент!


Время раздачи: 24/7 (круглосуточно) - до 5 скачавших, далее по возможности...
 
Не забывайте говорить Спасибо. Не уходите с раздачи!   
Торрент: Зарегистрирован [12 дек 2014, 00:06] Для скачивания .torrent
необходима регистрация
Или скачать с помощью
MediaGet
Статус:
Проверен
 
.torrent скачан: 1 раз
Хэш: f3bbcd4b2ead0d935562d151972fd9f617a31a6d
Размер: 3.37 ГБ (3 619 456 916 байт)
Стать Автором раздачи
 
 
Раздал: 6.67 ГБ
Скачал: 302.5 МБ
Ратио: 22.576
Сообщения: 374198
Зарегистрирован: 17 апр 2014, 11:05


  • Похожие торренты
    Ответы
    Просмотры
    Последнее сообщение

Вернуться в Видео для мобильных устройств

Ресурс не предоставляет электронные версии произведений, а занимается лишь коллекционированием и каталогизацией ссылок, присылаемых и публикуемых на форуме нашими читателями. Если вы являетесь правообладателем какого-либо представленного материала и не желаете чтобы ссылка на него находилась в нашем каталоге, свяжитесь с нами и мы незамедлительно удалим её. Файлы для обмена на трекере предоставлены пользователями сайта, и администрация не несёт ответственности за их содержание. Просьба не заливать файлы, защищенные авторскими правами, а также файлы нелегального содержания!
cron