Черные паруса (Black Sails) / (Сезон 1, серии 1-8 из 8) LostFilm (2014) [MP4|1280x720] <HDTVRip H.264>

 
 Статистика раздачи 
Размер: 13.72 ГБ   |  Зарегистрирован: 11 дек 2014, 15:07   |   .torrent скачан: 0 раз
Сидеров: 1  [ 0 байт/сек ]     Личеров: 0  [ 0 байт/сек ]  
  

Черные паруса (Black Sails) / (Сезон 1, серии 1-8 из 8) LostFilm (2014) [MP4|1280x720] <HDTVRip H.264>

Сообщение Thistoll » 11 дек 2014, 15:07

Черные паруса (Black Sails) / (Сезон 1, серии 1-8 из 8) LostFilm (2014) HDTVRip

Год выпуска: 2014
Жанр: Драма, приключения
Страна: США

Описание фильма:
1715 год. Золотой век — вершина пиратства в Карибском море. Остров бывшей британской колонии Нью-Провиденс является территорией беззакония, контролируемый самыми известными пиратскими капитанами в истории. Самым грозным из них является капитан Флинт.Но британский флот возвращается в эти воды, угрожая уничтожить Флинта и его команду. Движимый глубокими, сложными, даже романтическими мотивами, Флинт становится союзником с грозной Элеонорой Гатри, дочерью местного вора в законе, который превращает добычу пиратов в прибыль. Вместе они создают план, охотясь за высшей наградой, выиграв которую, они остановят захват своего дома и обеспечат их выживание.Им противостоит ряд соперников: конкурент капитана, завидующий власти Флинта, отец Элеоноры, чьи амбиции на острове приводят к конфликту с дочерью, и молодой моряк, Джон Сильвер, недавно принятый в экипаж Флинта, которому каким-то образом удается постоянно срывать планы своего капитана.

Режиссер: Нил Маршалл, Сэм Миллер, Т.Дж. Скотт
Актеры: Тоби Стивенс, Ханна Нью, Люк Арнольд, Зэк Макгоун, Тоби Шмитц, Клара Пэджет, Марк Райан, Хаким Кае-Казим, Дилан Скьюс, Шон Майкл и др.

Продолжительность: ~ 00:56:00 серия
Качество видео: WEB-DLRip 720p

Перевод: Многоголосый закадровый, профессиональный - LostFilm
Озвучка / Автор перевода: Студия «LostFilm»

ВНИМАНИЕ! В сериале присутствуют сцены сексуального характера и ненормативная лексика!
Ограничение по возрасту:
18+

Сэмпл
Дата мировой премьеры: 25 января 2014

Формат: MP4
Видеокодек: MPEG-4 AVC/H.264
Битрейт видео: ~4041 Кбит/сек
Размер кадра: 1280x720 (16:9)
Аудио #1: AAC, 2 канала, 128 Кбит/сек - русский (многоголосый закадровый)
Аудио #2: AAC, 2 канала, 128 Кбит/сек - английский (оригинал)
Полное имя : N:\Black_Sails_s1_HDTVRip720p_x264_LostFilm_[NNM-CLUB]\Black.Sails.S01E01.HD720p.HDTVRip.rus.eng.LostFilm.mp4
Формат : MPEG-4
Профиль формата : Base Media
Идентификатор кодека : isom
Размер файла : 1,96 Гбайт
Продолжительность : 1 ч. 5 м.
Общий поток : 4308 Кбит/сек
Дата кодирования : UTC 2014-01-23 21:06:40
Дата пометки : UTC 2014-01-23 21:06:40
Программа кодирования : XviD4PSP 6.0 / 54.29.105

Видео
Идентификатор : 1
Формат : AVC
Формат/Информация : Advanced Video Codec
Профиль формата :
Параметр CABAC формата : Да
Параметр ReFrames формата : 4 кадра
Идентификатор кодека : avc1
Идентификатор кодека/Информация : Advanced Video Coding
Продолжительность : 1 ч. 5 м.
Битрейт : 4041 Кбит/сек
Ширина : 1280 пикселей
Высота : 720 пикселей
Соотношение сторон : 16:9
Режим частоты кадров : Переменный
Частота кадров : 23,976 кадра/сек
Минимальная частота кадров : 23,786 кадра/сек
Максимальная частота кадров : 24,465 кадра/сек
Цветовое пространство : YUV
Субдискретизация насыщенности : 4:2:0
Битовая глубина : 8 бит
Тип развёртки : Прогрессивная
Бит/(Пиксели*Кадры) : 0.183
Размер потока : 1,84 Гбайт (94%)
Библиотека кодирования : x264 core 112 r1834 a51816a
Настройки программы : cabac=1 / ref=1 / deblock=1:0:0 / analyse=0x3:0x113 / me=hex / subme=7 / psy=1 / psy_rd=1.00:0.00 / mixed_ref=0 / me_range=16 / chroma_me=1 / trellis=1 / 8x8dct=1 / cqm=0 / deadzone=21,11 / fast_pskip=1 / chroma_qp_offset=-2 / threads=6 / sliced_threads=0 / nr=0 / decimate=1 / interlaced=0 / constrained_intra=0 / bframes=3 / b_pyramid=2 / b_adapt=1 / b_bias=0 / direct=1 / weightb=1 / open_gop=0 / weightp=2 / keyint=250 / keyint_min=25 / scenecut=40 / intra_refresh=0 / rc_lookahead=40 / rc=2pass / mbtree=1 / bitrate=4041 / ratetol=1.0 / qcomp=0.60 / qpmin=0 / qpmax=51 / qpstep=4 / cplxblur=20.0 / qblur=0.5 / ip_ratio=1.40 / aq=1:1.00
Дата кодирования : UTC 2014-01-23 21:06:40
Дата пометки : UTC 2014-01-23 21:06:40

Аудио #1
Идентификатор : 2
Формат : AAC
Формат/Информация : Advanced Audio Codec
Профиль формата : LC
Идентификатор кодека : 40
Продолжительность : 1 ч. 5 м.
Вид битрейта : Постоянный
Битрейт : 128 Кбит/сек
Каналы : 2 канала
Расположение каналов : Front: L R
Частота : 48,0 КГц
Метод сжатия : С потерями
Размер потока : 59,5 Мбайт (3%)
Язык : Russian
Дата кодирования : UTC 2014-01-23 21:06:40
Дата пометки : UTC 2014-01-23 21:06:40

Аудио #2
Идентификатор : 3
Формат : AAC
Формат/Информация : Advanced Audio Codec
Профиль формата : LC
Идентификатор кодека : 40
Продолжительность : 1 ч. 5 м.
Вид битрейта : Постоянный
Битрейт : 128 Кбит/сек
Каналы : 2 канала
Расположение каналов : Front: L R
Частота : 48,0 КГц
Метод сжатия : С потерями
Размер потока : 59,5 Мбайт (3%)
Язык : English
Дата кодирования : UTC 2014-01-23 21:06:40
Дата пометки : UTC 2014-01-23 21:06:40
Скриншоты:



Время раздачи:
24/7 - круглосуточно
(до первых 5-ти сидов - потом по возможности)
 
Не забывайте говорить Спасибо. Не уходите с раздачи!   
Торрент: Зарегистрирован [11 дек 2014, 15:07] Для скачивания .torrent
необходима регистрация
Или скачать с помощью
MediaGet
Статус:
Проверен
 
.torrent скачан: 0 раз
Хэш: 33bfbe80f0202c8851dc9b7eee71f3bced86ecf6
Размер: 13.72 ГБ (14 729 321 286 байт)
Стать Автором раздачи
 
 
Раздал: 6.67 ГБ
Скачал: 302.5 МБ
Ратио: 22.576
Сообщения: 374198
Зарегистрирован: 17 апр 2014, 11:05


  • Похожие торренты
    Ответы
    Просмотры
    Последнее сообщение

Вернуться в Видео для мобильных устройств

Ресурс не предоставляет электронные версии произведений, а занимается лишь коллекционированием и каталогизацией ссылок, присылаемых и публикуемых на форуме нашими читателями. Если вы являетесь правообладателем какого-либо представленного материала и не желаете чтобы ссылка на него находилась в нашем каталоге, свяжитесь с нами и мы незамедлительно удалим её. Файлы для обмена на трекере предоставлены пользователями сайта, и администрация не несёт ответственности за их содержание. Просьба не заливать файлы, защищенные авторскими правами, а также файлы нелегального содержания!
cron