Константин (Constantine) / (Сезон 1, серии 1-7 из 13) LostFilm (2014) [MP4|1280x718] <WEB-DLRip H.264>

 
 Статистика раздачи 
Размер: 9.23 ГБ   |  Зарегистрирован: 10 дек 2014, 22:26   |   .torrent скачан: 0 раз
Сидеров: 1  [ 0 байт/сек ]     Личеров: 1  [ 0 байт/сек ]  
  

Константин (Constantine) / (Сезон 1, серии 1-7 из 13) LostFilm (2014) [MP4|1280x718] <WEB-DLRip H.264>

Сообщение Thistoll » 10 дек 2014, 22:26

Константин (Constantine) / (Сезон 1, серии 1-7 из 13) LostFilm (2014) WEB-DLRip
«Giving Hell... hell»

Год выпуска: 2014
Жанр: Ужасы, Фэнтези, Боевик
Страна: США

Описание фильма:
Бывалый охотник на демонов и оккультист Джон Константин задаёт жару аду. Вооруженный таинственными знаниями темных искусств и обладая острым умом, он ведет неравную борьбу… ну, или по крайней мере вел. Так как его душа уже все равно проклята и попадет в ад, он решает оставить жизнь борца за добро, но когда демоны нацеливаются на Лив, дочь одного из самых давних друзей Константина, он неохотно возвращается, и сделает все возможное, чтобы спасти её.

Режиссер: Ромео Тироне, Нил Маршалл, Т.Дж. Скотт
Актеры: Мэтт Райан, Люси Гриффитс, Хэролд Перрино, Чарльз Халфорд, Майлз Андерсон, Джереми Дэвис, Джулия Леман, Марк Эшворт, Хиллари Брант, Анхелика Селая, Оскар Гейл, Кит Брукс, Дэвид Грегори и др.

Продолжительность: ~ 00:43:00 серия
Качество видео: WEB-DLRip 720p

Перевод: Многоголосый закадровый, профессиональный - LostFilm
Озвучка / Автор перевода: Студия «LostFilm»

Сэмпл
Дата мировой премьеры: 24 октября 2014

Формат: MP4
Видеокодек: MPEG-4 AVC/H.264
Битрейт видео: ~4000 Кбит/сек
Размер кадра: 1280x718 (16:9)
Аудиокодек: AAC, 2 канала
Битрейт аудио: 265 Кбит/сек
Полное имя : D:\Constantine_s1_WEB-DL720p_x264_LostFilm_[NNM-CLUB]\Constantine.S01E01.720p.WEB.rus.LostFilm.TV.mp4
Формат : MPEG-4
Профиль формата : Base Media
Идентификатор кодека : isom
Размер файла : 1,35 Гбайт
Продолжительность : 43 м.
Режим общего битрейта : Переменный
Общий поток : 4474 Кбит/сек
Коллекция : Константин
Сезон : 1
Альбом : Константин, Сезон 1
Альбом/Исполнитель : Константин
Часть : 1
Часть/Положение : 1
Трек : Не убежище
Трек/Положение : 1
Исполнитель : Константин
Жанр : Sci-Fi & Fantasy
Тип содержимого : TV Show
Дата записи : 2014
Дата кодирования : UTC 2014-10-26 15:16:01
Дата пометки : UTC 2014-10-26 15:16:01
Программа кодирования : Yamb 2.1.0.0 [http://yamb.unite-video.com] / LostCoder
Правообладатель : LostFilm.TV (c)
Обложка : Yes
Примечание : Джон Константин, опытный охотник на потусторонних тварей, экзорцист и оккультист, наделен способностью видеть нечисть, скрытую от человеческого глаза, в нашем мире. Устав от сражений, он решил оставаться в стороне от дальнейших разборок добра и зла.
Part_ID : 101

Видео
Идентификатор : 1
Формат : AVC
Формат/Информация : Advanced Video Codec
Профиль формата :
Параметр CABAC формата : Нет
Параметр ReFrames формата : 2 кадра
Идентификатор кодека : avc1
Идентификатор кодека/Информация : Advanced Video Coding
Продолжительность : 43 м.
Битрейт : 4000 Кбит/сек
Максимальный битрейт : 13,3 Мбит/сек
Ширина : 1280 пикселей
Высота : 718 пикселей
Соотношение сторон : 16:9
Режим частоты кадров : Переменный
Частота кадров : 23,976 кадра/сек
Минимальная частота кадров : 23,974 кадра/сек
Максимальная частота кадров : 23,981 кадра/сек
Цветовое пространство : YUV
Субдискретизация насыщенности : 4:2:0
Битовая глубина : 8 бит
Тип развёртки : Прогрессивная
Бит/(Пиксели*Кадры) : 0.182
Размер потока : 1,27 Гбайт (94%)
Библиотека кодирования : x264 core 112 r1834 a51816a
Настройки программы : cabac=0 / ref=3 / deblock=1:0:0 / analyse=0x1:0x111 / me=hex / subme=7 / psy=1 / psy_rd=1.00:0.00 / mixed_ref=1 / me_range=16 / chroma_me=1 / trellis=1 / 8x8dct=0 / cqm=0 / deadzone=21,11 / fast_pskip=1 / chroma_qp_offset=-2 / threads=6 / sliced_threads=0 / nr=0 / decimate=1 / interlaced=0 / constrained_intra=0 / bframes=3 / b_pyramid=2 / b_adapt=1 / b_bias=0 / direct=1 / weightb=1 / open_gop=0 / weightp=2 / keyint=250 / keyint_min=25 / scenecut=40 / intra_refresh=0 / rc_lookahead=40 / rc=abr / mbtree=1 / bitrate=4000 / ratetol=1.0 / qcomp=0.60 / qpmin=0 / qpmax=51 / qpstep=4 / vbv_maxrate=5000 / vbv_bufsize=2000 / ip_ratio=1.40 / aq=1:1.00 / nal_hrd=none
Язык : English
Дата пометки : UTC 2014-10-26 15:16:32
Основные цвета : BT.709
Характеристики трансфера : BT.709
Коэффициенты матрицы : BT.709

Аудио
Идентификатор : 2
Формат : AAC
Формат/Информация : Advanced Audio Codec
Профиль формата : LC
Идентификатор кодека : 40
Продолжительность : 43 м.
Вид битрейта : Переменный
Битрейт : 265 Кбит/сек
Максимальный битрейт : 343 Кбит/сек
Каналы : 2 канала
Расположение каналов : Front: L R
Частота : 48,0 КГц
Метод сжатия : С потерями
Размер потока : 80,4 Мбайт (6%)
Дата кодирования : UTC 2014-10-26 15:16:31
Дата пометки : UTC 2014-10-26 15:16:32
01 - Нет - прибежищу! / Non Est Asylum
02 - Подземная тьма / The Darkness Beneath
03 - Дьявольский винил / The Devil's Vinyl
04 - Пиршество друзей / A Feast of Friends
05 - Танец Вуду / Danse Vaudou
06 - Ярость Калибана / Rage of Caliban
07 - Благословенные проклятые / Blessed Are The Damned
Внимание! Раздача ведётся путём добавления новых серий; при каждом добавлении создаётся новый торрент.
Чтобы начать докачку новой серии, пользователям необходимо сделать следующее:
1. Остановить скачивание;
2. Удалить старый торрент у себя из клиента (старые серии удалять не надо);
3. Скачать новый торрент и запустить его у себя в клиенте вместо старого, при этом указать клиенту путь в старую папку куда и должно происходить скачивание новых серий. Ваш клиент при этом должен произвести хеширование (проверку) старой папки и будет докачивать только те серии, которых у вас ещё нет. Старые серии при этом не удаляются, а продолжают раздаваться! Eсли вы уже удалили старые серии, то предотвратить повторную закачку старых серий можно, отжав галочку в соответствующих местах при запуске нового торрента.
Скриншоты:



Время раздачи:
24/7 - круглосуточно
(до первых 5-ти сидов - потом по возможности)
 
Не забывайте говорить Спасибо. Не уходите с раздачи!   
Торрент: Зарегистрирован [10 дек 2014, 22:26] Для скачивания .torrent
необходима регистрация
Или скачать с помощью
MediaGet
Статус:
Проверен
 
.torrent скачан: 0 раз
Хэш: 4101853f2c8c585c29d202cb3f10ca42c9874ffd
Размер: 9.23 ГБ (9 913 007 116 байт)
Стать Автором раздачи
 
 
Раздал: 6.67 ГБ
Скачал: 302.5 МБ
Ратио: 22.576
Сообщения: 374198
Зарегистрирован: 17 апр 2014, 11:05


  • Похожие торренты
    Ответы
    Просмотры
    Последнее сообщение

Вернуться в Видео для мобильных устройств

Ресурс не предоставляет электронные версии произведений, а занимается лишь коллекционированием и каталогизацией ссылок, присылаемых и публикуемых на форуме нашими читателями. Если вы являетесь правообладателем какого-либо представленного материала и не желаете чтобы ссылка на него находилась в нашем каталоге, свяжитесь с нами и мы незамедлительно удалим её. Файлы для обмена на трекере предоставлены пользователями сайта, и администрация не несёт ответственности за их содержание. Просьба не заливать файлы, защищенные авторскими правами, а также файлы нелегального содержания!
cron