VA - 538 Dance Smash Hits Of The Year (2014) 3CD[FLAC|Lossless]<House, Dance, Trance>

 
 Статистика раздачи 
Размер: 1.61 ГБ   |  Зарегистрирован: 08 дек 2014, 13:27   |   .torrent скачан: 0 раз
Сидеров: 1  [ 0 байт/сек ]     Личеров: 0  [ 0 байт/сек ]  
  

VA - 538 Dance Smash Hits Of The Year (2014) 3CD[FLAC|Lossless]<House, Dance, Trance>

Сообщение Thistoll » 08 дек 2014, 13:27

VA - 538 Dance Smash Hits Of The Year (2014) 3CD


Страна-производитель диска: EU
Жанр: House, Dance, Trance
Год издания: 2014
Издатель (лейбл): Sony Music
Номер по каталогу: 88875017562

Аудиокодек: FLAC (*.flac)
Тип рипа: image+.cue
Битрейт аудио: lossless
Источник (релизер): вата
Наличие сканов: Да, полные
Продолжительность: 03:45:25


Описание: Нидерландская радиостанция Radio 538 довольно активно выпускает диски по страницам своих хит-листингов. Достаточно полно представлены эти хиты и на нашем трекере.
Один из последних сборников по традиции собрал все самое интересное за 2014 год.


Треклист:
CD1:
01. Lilly Wood & The Prick and Robin Schulz - Prayer In C (3:10)
02. Oliver Heldens - Gecko (2:45)
03. Calvin Harris feat. John Newman - Blame (3:26)
04. Martin Garrix - Proxy (3:18)
05. Avicii - Addicted To You (2:24)
06. Mr. Probz - Waves (Robin Schulz Radio Edit) (3:23)
07. Afrojack & D-Wayne feat. Jack McManus - Freedom (2:52)
08. Mike Mago & Dragonette - Outlines (3:02)
09. Sander van Doorn, Martin Garrix, DVBBS feat. Aleesia - Gold Skies (3:55)
10. Ariana Grande feat. Zedd - Break Free (3:33)
11. Sigma - Nobody To Love (3:08)
12. Armin van Buuren - Save My Night (2:50)

13. Hardwell feat. Chris Jones - Young Again (3:36)
14. Chocolate Puma feat. Kris Kiss - Step Back (2:51)
15. The Magician feat. Years & Years - Sunlight (3:28)
16. John Martin - Anywhere For You (3:31)
17. Bingo Players - Knock You Out (2:49)
18. Showtek - We Like To Party (3:29)
19. Otto Knows - Parachute (3:23)
20. Milky Chance - Stolen Dance (FlicFlac Mix) (3:31)
21. Fox Stevenson - Sweets (Soda Pop) (3:06)
22. DubVision - Backlash (Martin Garrix Edit) (2:49)
23. Dimitri Vegas, Martin Garrix, Like Mike - Tremor (Sensation 2014 Anthem) (3:12)
24. Fatboy Slim feat. Riva Starr - Eat Sleep Rave Repeat (Calvin Harris Radio Edit) (2:48)
Продoлжитeльность -01:16:17
Код:
Код: Выделить всё
REM GENRE Dance
REM DATE 2014
REM DISCID 5911E118
REM COMMENT ExactAudioCopy v1.0b3
PERFORMER "Various"
TITLE "538 Dance Smash Hits Of The Year 2014 (CD1)"
FILE "538 Dance Smash Hits Of The Year 2014 (CD1).flac" WAVE
  TRACK 01 AUDIO
    TITLE "Prayer In C"
    PERFORMER "Lilly Wood & The Prick and Robin Schulz"
    INDEX 01 00:00:00
  TRACK 02 AUDIO
    TITLE "Gecko"
    PERFORMER "Oliver Heldens"
    INDEX 01 03:09:39
  TRACK 03 AUDIO
    TITLE "Blame"
    PERFORMER "Calvin Harris feat. John Newman"
    INDEX 01 05:54:55
  TRACK 04 AUDIO
    TITLE "Proxy"
    PERFORMER "Martin Garrix"
    INDEX 01 09:20:54
  TRACK 05 AUDIO
    TITLE "Addicted To You"
    PERFORMER "Avicii"
    INDEX 01 12:38:70
  TRACK 06 AUDIO
    TITLE "Waves (Robin Schulz Radio Edit)"
    PERFORMER "Mr. Probz"
    INDEX 01 15:03:23
  TRACK 07 AUDIO
    TITLE "Freedom"
    PERFORMER "Afrojack & D-Wayne feat. Jack McManus"
    INDEX 01 18:26:00
  TRACK 08 AUDIO
    TITLE "Outlines"
    PERFORMER "Mike Mago & Dragonette"
    INDEX 01 21:18:25
  TRACK 09 AUDIO
    TITLE "Gold Skies"
    PERFORMER "Sander van Doorn, Martin Garrix, DVBBS feat. Aleesia"
    INDEX 01 24:20:54
  TRACK 10 AUDIO
    TITLE "Break Free"
    PERFORMER "Ariana Grande feat. Zedd"
    INDEX 01 28:15:72
  TRACK 11 AUDIO
    TITLE "Nobody To Love"
    PERFORMER "Sigma"
    INDEX 01 31:49:17
  TRACK 12 AUDIO
    TITLE "Save My Night"
    PERFORMER "Armin van Buuren"
    INDEX 01 34:57:15
  TRACK 13 AUDIO
    TITLE "Young Again"
    PERFORMER "Hardwell feat. Chris Jones"
    INDEX 01 37:47:23
  TRACK 14 AUDIO
    TITLE "Step Back"
    PERFORMER "Chocolate Puma feat. Kris Kiss"
    INDEX 01 41:23:12
  TRACK 15 AUDIO
    TITLE "Sunlight"
    PERFORMER "The Magician feat. Years & Years"
    INDEX 01 44:13:52
  TRACK 16 AUDIO
    TITLE "Anywhere For You"
    PERFORMER "John Martin"
    INDEX 01 47:41:18
  TRACK 17 AUDIO
    TITLE "Knock You Out"
    PERFORMER "Bingo Players"
    INDEX 01 51:12:46
  TRACK 18 AUDIO
    TITLE "We Like To Party"
    PERFORMER "Showtek"
    INDEX 01 54:01:20
  TRACK 19 AUDIO
    TITLE "Parachute"
    PERFORMER "Otto Knows"
    INDEX 01 57:29:60
  TRACK 20 AUDIO
    TITLE "Stolen Dance (FlicFlac Mix)"
    PERFORMER "Milky Chance"
    INDEX 01 60:52:24
  TRACK 21 AUDIO
    TITLE "Sweets (Soda Pop)"
    PERFORMER "Fox Stevenson"
    INDEX 01 64:22:71
  TRACK 22 AUDIO
    TITLE "Backlash (Martin Garrix Edit)"
    PERFORMER "DubVision"
    INDEX 01 67:28:53
  TRACK 23 AUDIO
    TITLE "Tremor (Sensation 2014 Anthem)"
    PERFORMER "Dimitri Vegas, Martin Garrix, Like Mike"
    INDEX 01 70:17:37
  TRACK 24 AUDIO
    TITLE "Eat Sleep Rave Repeat (Calvin Harris Radio Edit)"
    PERFORMER "Fatboy Slim feat. Riva Starr"
    INDEX 01 73:29:03
Код:
Код: Выделить всё
Exact Audio Copy V1.0 beta 3 from 29. August 2011

EAC extraction logfile from 16. November 2014, 13:15

- / 538 Dance Smash Hits Of The Year 2014 (CD1)

Used drive  : PIONEER DVD-RW  DVR-221L   Adapter: 1  ID: 0

Read mode               : Secure
Utilize accurate stream : Yes
Defeat audio cache      : Yes
Make use of C2 pointers : No

Read offset correction                      : 6
Overread into Lead-In and Lead-Out          : No
Fill up missing offset samples with silence : Yes
Delete leading and trailing silent blocks   : No
Null samples used in CRC calculations       : Yes
Used interface                              : Installed external ASPI interface

Used output format : Internal WAV Routines
Sample format      : 44.100 Hz; 16 Bit; Stereo

TOC of the extracted CD

     Track |   Start  |  Length  | Start sector | End sector
    ---------------------------------------------------------
        1  |  0:00.00 |  3:09.39 |         0    |    14213
        2  |  3:09.39 |  2:45.16 |     14214    |    26604
        3  |  5:54.55 |  3:25.74 |     26605    |    42053
        4  |  9:20.54 |  3:18.16 |     42054    |    56919
        5  | 12:38.70 |  2:24.28 |     56920    |    67747
        6  | 15:03.23 |  3:22.52 |     67748    |    82949
        7  | 18:26.00 |  2:52.25 |     82950    |    95874
        8  | 21:18.25 |  3:02.29 |     95875    |   109553
        9  | 24:20.54 |  3:55.18 |    109554    |   127196
       10  | 28:15.72 |  3:33.20 |    127197    |   143191
       11  | 31:49.17 |  3:07.73 |    143192    |   157289
       12  | 34:57.15 |  2:50.08 |    157290    |   170047
       13  | 37:47.23 |  3:35.64 |    170048    |   186236
       14  | 41:23.12 |  2:50.40 |    186237    |   199026
       15  | 44:13.52 |  3:27.41 |    199027    |   214592
       16  | 47:41.18 |  3:31.28 |    214593    |   230445
       17  | 51:12.46 |  2:48.49 |    230446    |   243094
       18  | 54:01.20 |  3:28.40 |    243095    |   258734
       19  | 57:29.60 |  3:22.39 |    258735    |   273923
       20  | 60:52.24 |  3:30.47 |    273924    |   289720
       21  | 64:22.71 |  3:05.57 |    289721    |   303652
       22  | 67:28.53 |  2:48.59 |    303653    |   316311
       23  | 70:17.37 |  3:11.41 |    316312    |   330677
       24  | 73:29.03 |  2:48.10 |    330678    |   343287

Range status and errors

Selected range

     Filename D:\POST 2\538 Dance Smash Hits Of The Year 2014 (EAC)\CD1\538 Dance Smash Hits Of The Year 2014 (CD1).wav

     Peak level 96.6 %
     Extraction speed 8.6 X
     Range quality 100.0 %
     Test CRC C9A88126
     Copy CRC C9A88126
     Copy OK

No errors occurred

AccurateRip summary

Track  1  not present in database
Track  2  not present in database
Track  3  not present in database
Track  4  not present in database
Track  5  not present in database
Track  6  not present in database
Track  7  not present in database
Track  8  not present in database
Track  9  not present in database
Track 10  not present in database
Track 11  not present in database
Track 12  not present in database
Track 13  not present in database
Track 14  not present in database
Track 15  not present in database
Track 16  not present in database
Track 17  not present in database
Track 18  not present in database
Track 19  not present in database
Track 20  not present in database
Track 21  not present in database
Track 22  not present in database
Track 23  not present in database
Track 24  not present in database

None of the tracks are present in the AccurateRip database

End of status report
Код:
Код: Выделить всё
-----------------------

DON'T MODIFY THIS FILE

-----------------------

PERFORMER: auCDtect Task Manager, ver. 1.6.0 RC1 build 1.6.0.1
Copyright (c) 2008-2010 y-soft. All rights reserved
http:/y-soft.org

ANALYZER: auCDtect: CD records authenticity detector, version 0.8.2
Copyright (c) 2004 Oleg Berngardt. All rights reserved.
Copyright (c) 2004 Alexander Djourik. All rights reserved.

FILE: 538 Dance Smash Hits Of The Year 2014 (CD1).flac
  Size: 570208144 Hash: 900518965BFDBD94591C52D3EE3CCCA1 Accuracy: -m0
  Conclusion: CDDA 100%
  Signature: 38CC5B808DDD39D4382394F99045BAF6F6546DA6

Трeклиcт:
01. David Guetta feat. Sam Martin - Lovers On The Sun (3:23)
02. Watermat - Bullit (3:14)
03. Clean Bandit feat. Jess Glynne - Rather Be (The Magician Remix) (4:32)
04. R3hab & Trevor Guthrie - Soundwave (2:59)
05. Martin Garrix & MOTi - Virus (How About Now) (3:17)
06. Eelke Kleijn - Mistakes I've Made (3:29)
07. Oliver Heldens - Koala (2:47)
08. Nicky Romero & Anouk - Feet On The Ground (2:49)
09. Para One - You Too (3:12)
10. Afrojack vs. 30 Seconds To Mars - Do Or Die (Remix) (4:36)
11. Faul & Wad Ad vs. Pnau - Changes (3:20)
12. Napt - Come On Surrender (Nom De Strip & Chris Lake Radio Edit) (3:24)
13. Made In June - You And I (3:03)
14. Sigma feat. Paloma Faith - Changing (3:11)
15. Firebeatz - Bazooka (538 Turn Up The Beach 2014 Theme) (3:03)
16. Tube & Berger feat. Juliet Sikora - Set It Off (3:01)
17. Afrojack feat. Snoop Dogg - Dynamite (3:47)
18. Duke Dumont feat. Jax Jones - I Got U (3:17)
19. Frank & Jelte - Press.Play.Jump (2:46)
20. Dr. Kucho! & Gregor Salto - Can't Stop Playing (Oliver Heldens & Gregor Salto Remix Edit) (3:00)
21. DJ Snake & Lil Jon - Turn Down For What (3:33)
22. Martin Garrix & Jay Hardway - Wizard (3:22)
23. Steve Aoki, Chris Lake & Tujamo - Boneless (2:32)
24. Armin van Buuren - Ping Pong (2:58)
Продoлжитeльность -01:18:33
Код:
Код: Выделить всё
REM GENRE Dance
REM DATE 2014
REM DISCID 65126918
REM COMMENT ExactAudioCopy v1.0b3
PERFORMER "Various"
TITLE "538 Dance Smash Hits Of The Year 2014 (CD2)"
FILE "538 Dance Smash Hits Of The Year 2014 (CD2).flac" WAVE
  TRACK 01 AUDIO
    TITLE "Lovers On The Sun"
    PERFORMER "David Guetta feat. Sam Martin"
    INDEX 01 00:00:00
  TRACK 02 AUDIO
    TITLE "Bullit"
    PERFORMER "Watermat"
    INDEX 01 03:22:64
  TRACK 03 AUDIO
    TITLE "Rather Be (The Magician Remix)"
    PERFORMER "Clean Bandit feat. Jess Glynne"
    INDEX 01 06:36:54
  TRACK 04 AUDIO
    TITLE "Soundwave"
    PERFORMER "R3hab & Trevor Guthrie"
    INDEX 01 11:08:46
  TRACK 05 AUDIO
    TITLE "Virus (How About Now)"
    PERFORMER "Martin Garrix & MOTi"
    INDEX 01 14:07:42
  TRACK 06 AUDIO
    TITLE "Mistakes I've Made"
    PERFORMER "Eelke Kleijn"
    INDEX 01 17:24:09
  TRACK 07 AUDIO
    TITLE "Koala"
    PERFORMER "Oliver Heldens"
    INDEX 01 20:53:30
  TRACK 08 AUDIO
    TITLE "Feet On The Ground"
    PERFORMER "Nicky Romero & Anouk"
    INDEX 01 23:40:33
  TRACK 09 AUDIO
    TITLE "You Too"
    PERFORMER "Para One"
    INDEX 01 26:29:28
  TRACK 10 AUDIO
    TITLE "Do Or Die (Remix)"
    PERFORMER "Afrojack vs. 30 Seconds To Mars"
    INDEX 01 29:41:27
  TRACK 11 AUDIO
    TITLE "Changes"
    PERFORMER "Faul & Wad Ad vs. Pnau"
    INDEX 01 34:16:71
  TRACK 12 AUDIO
    TITLE "Come On Surrender (Nom De Strip & Chris Lake Radio Edit)"
    PERFORMER "Napt"
    INDEX 01 37:37:10
  TRACK 13 AUDIO
    TITLE "You And I"
    PERFORMER "Made In June"
    INDEX 01 41:00:55
  TRACK 14 AUDIO
    TITLE "Changing"
    PERFORMER "Sigma feat. Paloma Faith"
    INDEX 01 44:03:62
  TRACK 15 AUDIO
    TITLE "Bazooka (538 Turn Up The Beach 2014 Theme)"
    PERFORMER "Firebeatz"
    INDEX 01 47:14:50
  TRACK 16 AUDIO
    TITLE "Set It Off"
    PERFORMER "Tube & Berger feat. Juliet Sikora"
    INDEX 01 50:17:47
  TRACK 17 AUDIO
    TITLE "Dynamite"
    PERFORMER "Afrojack feat. Snoop Dogg"
    INDEX 01 53:18:57
  TRACK 18 AUDIO
    TITLE "I Got U"
    PERFORMER "Duke Dumont feat. Jax Jones"
    INDEX 01 57:05:40
  TRACK 19 AUDIO
    TITLE "Press.Play.Jump"
    PERFORMER "Frank & Jelte"
    INDEX 01 60:22:73
  TRACK 20 AUDIO
    TITLE "Can't Stop Playing (Oliver Heldens & Gregor Salto Remix Edit)"
    PERFORMER "Dr. Kucho! & Gregor Salto"
    INDEX 01 63:09:09
  TRACK 21 AUDIO
    TITLE "Turn Down For What"
    PERFORMER " DJ Snake & Lil Jon"
    INDEX 01 66:08:66
  TRACK 22 AUDIO
    TITLE "Wizard"
    PERFORMER "Martin Garrix & Jay Hardway"
    INDEX 01 69:41:35
  TRACK 23 AUDIO
    TITLE "Boneless"
    PERFORMER "Steve Aoki, Chris Lake & Tujamo"
    INDEX 01 73:03:46
  TRACK 24 AUDIO
    TITLE "Ping Pong"
    PERFORMER "Armin van Buuren"
    INDEX 01 75:35:29
Код:
Код: Выделить всё
Exact Audio Copy V1.0 beta 3 from 29. August 2011

EAC extraction logfile from 16. November 2014, 13:55

- / 538 Dance Smash Hits Of The Year 2014 (CD2)

Used drive  : PIONEER DVD-RW  DVR-221L   Adapter: 1  ID: 0

Read mode               : Secure
Utilize accurate stream : Yes
Defeat audio cache      : Yes
Make use of C2 pointers : No

Read offset correction                      : 6
Overread into Lead-In and Lead-Out          : No
Fill up missing offset samples with silence : Yes
Delete leading and trailing silent blocks   : No
Null samples used in CRC calculations       : Yes
Used interface                              : Installed external ASPI interface

Used output format : Internal WAV Routines
Sample format      : 44.100 Hz; 16 Bit; Stereo

TOC of the extracted CD

     Track |   Start  |  Length  | Start sector | End sector
    ---------------------------------------------------------
        1  |  0:00.00 |  3:22.64 |         0    |    15213
        2  |  3:22.64 |  3:13.65 |     15214    |    29753
        3  |  6:36.54 |  4:31.67 |     29754    |    50145
        4  | 11:08.46 |  2:58.71 |     50146    |    63566
        5  | 14:07.42 |  3:16.42 |     63567    |    78308
        6  | 17:24.09 |  3:29.21 |     78309    |    94004
        7  | 20:53.30 |  2:47.03 |     94005    |   106532
        8  | 23:40.33 |  2:48.70 |    106533    |   119202
        9  | 26:29.28 |  3:11.74 |    119203    |   133601
       10  | 29:41.27 |  4:35.44 |    133602    |   154270
       11  | 34:16.71 |  3:20.14 |    154271    |   169284
       12  | 37:37.10 |  3:23.45 |    169285    |   184554
       13  | 41:00.55 |  3:03.07 |    184555    |   198286
       14  | 44:03.62 |  3:10.63 |    198287    |   212599
       15  | 47:14.50 |  3:02.72 |    212600    |   226321
       16  | 50:17.47 |  3:01.10 |    226322    |   239906
       17  | 53:18.57 |  3:46.58 |    239907    |   256914
       18  | 57:05.40 |  3:17.33 |    256915    |   271722
       19  | 60:22.73 |  2:46.11 |    271723    |   284183
       20  | 63:09.09 |  2:59.57 |    284184    |   297665
       21  | 66:08.66 |  3:32.44 |    297666    |   313609
       22  | 69:41.35 |  3:22.11 |    313610    |   328770
       23  | 73:03.46 |  2:31.58 |    328771    |   340153
       24  | 75:35.29 |  2:57.55 |    340154    |   353483

Range status and errors

Selected range

     Filename D:\POST 2\538 Dance Smash Hits Of The Year 2014 (EAC)\CD2\538 Dance Smash Hits Of The Year 2014 (CD2).wav

     Peak level 96.6 %
     Extraction speed 8.7 X
     Range quality 100.0 %
     Test CRC 2BFD57D8
     Copy CRC 2BFD57D8
     Copy OK

No errors occurred

AccurateRip summary

Track  1  not present in database
Track  2  not present in database
Track  3  not present in database
Track  4  not present in database
Track  5  not present in database
Track  6  not present in database
Track  7  not present in database
Track  8  not present in database
Track  9  not present in database
Track 10  not present in database
Track 11  not present in database
Track 12  not present in database
Track 13  not present in database
Track 14  not present in database
Track 15  not present in database
Track 16  not present in database
Track 17  not present in database
Track 18  not present in database
Track 19  not present in database
Track 20  not present in database
Track 21  not present in database
Track 22  not present in database
Track 23  not present in database
Track 24  not present in database

None of the tracks are present in the AccurateRip database

End of status report
Код:
Код: Выделить всё
-----------------------

DON'T MODIFY THIS FILE

-----------------------

PERFORMER: auCDtect Task Manager, ver. 1.6.0 RC1 build 1.6.0.1
Copyright (c) 2008-2010 y-soft. All rights reserved
http:/y-soft.org

ANALYZER: auCDtect: CD records authenticity detector, version 0.8.2
Copyright (c) 2004 Oleg Berngardt. All rights reserved.
Copyright (c) 2004 Alexander Djourik. All rights reserved.

FILE: 538 Dance Smash Hits Of The Year 2014 (CD2).flac
  Size: 579632579 Hash: 799EEBAE0AA1B19056C84DD4640EDC77 Accuracy: -m0
  Conclusion: CDDA 100%
  Signature: 96DA984C9773A85A70CEA94515555501A9300AA7

Трeклиcт:
01. Tube & Berger feat. Juliet Sikora - Set It Off (1:54)
02. The Magician - Sunlight (1:19)
03. Chocolate Puma - Step Back (1:40)
04. Martin Garrix & MOTi - Virus (How About Now) (1:47)
05. Otto Knows - Parachute (1:32)
06. Frank & Jelte - Press.Play.Jump (1:12)
07. Firebeatz - Bazooka (538 Turn Up The Beach 2014 Anthem) (2:15)
08. DubVision - Backlash (Martin Garrix Edit) (1:31)
09. Napt - Come On Surreder (Chris Lake & Nom De Strip Radio Edit) (1:31)
10. John Martin - Anywhere For You (1:53)
11. Fox Stevenson - Sweets (Soda Pop) (1:45)
12. Martin Garrix - Proxy (1:30)
13. Martin Garrix & Jay Hardway - Wizard (1:34)
14. Fatboy Slim feat. Riva Starr - Eat Sleep Rave Repeat (Calvin Harris Remix) (1:53)
15. Oliver Heldens - Gecko (2:00)
16. Ariana Grande feat. Zedd - Break Free (1:14)
17. Nicky Romero & Anouk - Feet On The Ground (1:23)
18. Afrojack & D-Wayne feat. Jack McManus - Freedom (1:49)
19. Lilly Wood & The Prick and Robin Schulz - Prayer In C (Robin Schulz Remix) (1:46)
20. Made In June - You And I (1:31)
21. Sander van Doorn, Martin Garrix, DVBBS feat. Aleesia - Gold Skies (1:30)
22. Bingo Players - Knock You Out (1:45)
23. Duke Dumont feat. Jax Jones - I Got U (1:51)
24. Watermat - Bullit (1:32)
25. Para One - You Too (2:07)
26. Hardwell feat. Niles Mason - Young Again (1:46)
27. Showtek - We Like To Party (1:29)
28. David Guetta feat. Sam Martin - Lovers On The Sun (1:31)
29. Afrojack vs. 30 Seconds To Mars - Do Or Die (1:45)
30. Armin van Buuren - Ping Pong (1:58)
31. Dimitri Vegas & Like Mike feat. Martin Garrix - Tremor (Sensation 2014 Anthem) (1:45)
32. Mike Mago & Dragonette - Outlines (1:40)
33. Avicii - Addicted To You (1:28)
34. R3hab & Trevor Guthrie - Soundwaves (1:30)
35. Armin van Buuren - Save My Night (1:47)
36. Clean Bandit feat. Jess Glynne - Rather Be (The Magician Remix) (2:18)
37. Milky Chance - Stolen Dance (Flic Flac Remix) (1:41)
38. Dr. Kucho! & Gregor Salto - Can't Stop Playing (Oliver Heldens Remix) (2:03)
39. Oliver Heldens - Koala (2:15)
40. Afrojack feat. Snoop Dogg - Dynamite (1:16)
41. Sigma - Nobody To Love (1:16)
42. Sigma feat. Paloma Faith - Changing (1:22)
Продoлжитeльность -01:10:35
Код:
Код: Выделить всё
REM GENRE Dance
REM DATE 2014
REM DISCID 60108A2A
REM COMMENT ExactAudioCopy v1.0b3
PERFORMER "Various"
TITLE "538 Dance Smash Yearmix 2014 By Jan Hinke"
FILE "538 Dance Smash Yearmix 2014 By Jan Hinke.flac" WAVE
  TRACK 01 AUDIO
    TITLE "Set It Off"
    PERFORMER "Tube & Berger feat. Juliet Sikora"
    INDEX 01 00:00:00
  TRACK 02 AUDIO
    TITLE "Sunlight"
    PERFORMER "The Magician"
    INDEX 01 01:54:25
  TRACK 03 AUDIO
    TITLE "Step Back"
    PERFORMER "Chocolate Puma"
    INDEX 01 03:13:03
  TRACK 04 AUDIO
    TITLE "Virus (How About Now)"
    PERFORMER "Martin Garrix & MOTi"
    INDEX 01 04:53:11
  TRACK 05 AUDIO
    TITLE "Parachute"
    PERFORMER "Otto Knows"
    INDEX 01 06:40:14
  TRACK 06 AUDIO
    TITLE "Press.Play.Jump"
    PERFORMER "Frank & Jelte"
    INDEX 01 08:11:60
  TRACK 07 AUDIO
    TITLE "Bazooka (538 Turn Up The Beach 2014 Anthem)"
    PERFORMER "Firebeatz"
    INDEX 01 09:23:63
  TRACK 08 AUDIO
    TITLE "Backlash (Martin Garrix Edit)"
    PERFORMER "DubVision"
    INDEX 01 11:38:68
  TRACK 09 AUDIO
    TITLE "Come On Surreder (Chris Lake & Nom De Strip Radio Edit)"
    PERFORMER "Napt"
    INDEX 01 13:09:45
  TRACK 10 AUDIO
    TITLE "Anywhere For You"
    PERFORMER "John Martin"
    INDEX 01 14:40:36
  TRACK 11 AUDIO
    TITLE "Sweets (Soda Pop)"
    PERFORMER "Fox Stevenson"
    INDEX 01 16:33:36
  TRACK 12 AUDIO
    TITLE "Proxy"
    PERFORMER "Martin Garrix"
    INDEX 01 18:18:36
  TRACK 13 AUDIO
    TITLE "Wizard"
    PERFORMER "Martin Garrix & Jay Hardway"
    INDEX 01 19:48:36
  TRACK 14 AUDIO
    TITLE "Eat Sleep Rave Repeat (Calvin Harris Remix)"
    PERFORMER "Fatboy Slim feat. Riva Starr"
    INDEX 01 21:22:17
  TRACK 15 AUDIO
    TITLE "Gecko"
    PERFORMER "Oliver Heldens"
    INDEX 01 23:14:55
  TRACK 16 AUDIO
    TITLE "Break Free"
    PERFORMER "Ariana Grande feat. Zedd"
    INDEX 01 25:14:45
  TRACK 17 AUDIO
    TITLE "Feet On The Ground"
    PERFORMER "Nicky Romero & Anouk"
    INDEX 01 26:28:33
  TRACK 18 AUDIO
    TITLE "Freedom"
    PERFORMER "Afrojack & D-Wayne feat. Jack McManus"
    INDEX 01 27:51:61
  TRACK 19 AUDIO
    TITLE "Prayer In C (Robin Schulz Remix)"
    PERFORMER "Lilly Wood & The Prick and Robin Schulz"
    INDEX 01 29:40:45
  TRACK 20 AUDIO
    TITLE "You And I"
    PERFORMER "Made In June"
    INDEX 01 31:26:56
  TRACK 21 AUDIO
    TITLE "Gold Skies"
    PERFORMER "Sander van Doorn, Martin Garrix, DVBBS feat. Aleesia"
    INDEX 01 32:58:02
  TRACK 22 AUDIO
    TITLE "Knock You Out"
    PERFORMER "Bingo Players"
    INDEX 01 34:28:02
  TRACK 23 AUDIO
    TITLE "I Got U"
    PERFORMER "Duke Dumont feat. Jax Jones"
    INDEX 01 36:13:15
  TRACK 24 AUDIO
    TITLE "Bullit"
    PERFORMER "Watermat"
    INDEX 01 38:04:43
  TRACK 25 AUDIO
    TITLE "You Too"
    PERFORMER "Para One"
    INDEX 01 39:36:55
  TRACK 26 AUDIO
    TITLE "Young Again"
    PERFORMER "Hardwell feat. Niles Mason"
    INDEX 01 41:43:33
  TRACK 27 AUDIO
    TITLE "We Like To Party"
    PERFORMER "Showtek"
    INDEX 01 43:29:36
  TRACK 28 AUDIO
    TITLE "Lovers On The Sun"
    PERFORMER "David Guetta feat. Sam Martin"
    INDEX 01 44:58:73
  TRACK 29 AUDIO
    TITLE "Do Or Die"
    PERFORMER "Afrojack vs. 30 Seconds To Mars"
    INDEX 01 46:30:19
  TRACK 30 AUDIO
    TITLE "Ping Pong"
    PERFORMER "Armin van Buuren"
    INDEX 01 48:15:20
  TRACK 31 AUDIO
    TITLE "Tremor (Sensation 2014 Anthem)"
    PERFORMER "Dimitri Vegas & Like Mike feat. Martin Garrix"
    INDEX 01 50:13:41
  TRACK 32 AUDIO
    TITLE "Outlines"
    PERFORMER "Mike Mago & Dragonette"
    INDEX 01 51:58:26
  TRACK 33 AUDIO
    TITLE "Addicted To You"
    PERFORMER "Avicii"
    INDEX 01 53:38:15
  TRACK 34 AUDIO
    TITLE "Soundwaves"
    PERFORMER "R3hab & Trevor Guthrie"
    INDEX 01 55:06:47
  TRACK 35 AUDIO
    TITLE "Save My Night"
    PERFORMER "Armin van Buuren"
    INDEX 01 56:36:35
  TRACK 36 AUDIO
    TITLE "Rather Be (The Magician Remix)"
    PERFORMER "Clean Bandit feat. Jess Glynne"
    INDEX 01 58:23:51
  TRACK 37 AUDIO
    TITLE "Stolen Dance (Flic Flac Remix)"
    PERFORMER "Milky Chance"
    INDEX 01 60:41:54
  TRACK 38 AUDIO
    TITLE "Can't Stop Playing (Oliver Heldens Remix)"
    PERFORMER "Dr. Kucho! & Gregor Salto "
    INDEX 01 62:22:42
  TRACK 39 AUDIO
    TITLE "Koala"
    PERFORMER "Oliver Heldens"
    INDEX 01 64:25:26
  TRACK 40 AUDIO
    TITLE "Dynamite"
    PERFORMER "Afrojack feat. Snoop Dogg"
    INDEX 01 66:40:33
  TRACK 41 AUDIO
    TITLE "Nobody To Love"
    PERFORMER "Sigma"
    INDEX 01 67:56:60
  TRACK 42 AUDIO
    TITLE "Changing"
    PERFORMER "Sigma feat. Paloma Faith"
    INDEX 01 69:13:12
Код:
Код: Выделить всё
Exact Audio Copy V1.0 beta 3 from 29. August 2011

EAC extraction logfile from 16. November 2014, 14:32

- / 538 Dance Smash Yearmix 2014 By Jan Hinke

Used drive  : PIONEER DVD-RW  DVR-221L   Adapter: 1  ID: 0

Read mode               : Secure
Utilize accurate stream : Yes
Defeat audio cache      : Yes
Make use of C2 pointers : No

Read offset correction                      : 6
Overread into Lead-In and Lead-Out          : No
Fill up missing offset samples with silence : Yes
Delete leading and trailing silent blocks   : No
Null samples used in CRC calculations       : Yes
Used interface                              : Installed external ASPI interface

Used output format : Internal WAV Routines
Sample format      : 44.100 Hz; 16 Bit; Stereo

TOC of the extracted CD

     Track |   Start  |  Length  | Start sector | End sector
    ---------------------------------------------------------
        1  |  0:00.00 |  1:54.25 |         0    |     8574
        2  |  1:54.25 |  1:18.53 |      8575    |    14477
        3  |  3:13.03 |  1:40.08 |     14478    |    21985
        4  |  4:53.11 |  1:47.03 |     21986    |    30013
        5  |  6:40.14 |  1:31.46 |     30014    |    36884
        6  |  8:11.60 |  1:12.03 |     36885    |    42287
        7  |  9:23.63 |  2:15.05 |     42288    |    52417
        8  | 11:38.68 |  1:30.52 |     52418    |    59219
        9  | 13:09.45 |  1:30.66 |     59220    |    66035
       10  | 14:40.36 |  1:53.00 |     66036    |    74510
       11  | 16:33.36 |  1:45.00 |     74511    |    82385
       12  | 18:18.36 |  1:30.00 |     82386    |    89135
       13  | 19:48.36 |  1:33.56 |     89136    |    96166
       14  | 21:22.17 |  1:52.38 |     96167    |   104604
       15  | 23:14.55 |  1:59.65 |    104605    |   113594
       16  | 25:14.45 |  1:13.63 |    113595    |   119132
       17  | 26:28.33 |  1:23.28 |    119133    |   125385
       18  | 27:51.61 |  1:48.59 |    125386    |   133544
       19  | 29:40.45 |  1:46.11 |    133545    |   141505
       20  | 31:26.56 |  1:31.21 |    141506    |   148351
       21  | 32:58.02 |  1:30.00 |    148352    |   155101
       22  | 34:28.02 |  1:45.13 |    155102    |   162989
       23  | 36:13.15 |  1:51.28 |    162990    |   171342
       24  | 38:04.43 |  1:32.12 |    171343    |   178254
       25  | 39:36.55 |  2:06.53 |    178255    |   187757
       26  | 41:43.33 |  1:46.03 |    187758    |   195710
       27  | 43:29.36 |  1:29.37 |    195711    |   202422
       28  | 44:58.73 |  1:31.21 |    202423    |   209268
       29  | 46:30.19 |  1:45.01 |    209269    |   217144
       30  | 48:15.20 |  1:58.21 |    217145    |   226015
       31  | 50:13.41 |  1:44.60 |    226016    |   233875
       32  | 51:58.26 |  1:39.64 |    233876    |   241364
       33  | 53:38.15 |  1:28.32 |    241365    |   247996
       34  | 55:06.47 |  1:29.63 |    247997    |   254734
       35  | 56:36.35 |  1:47.16 |    254735    |   262775
       36  | 58:23.51 |  2:18.03 |    262776    |   273128
       37  | 60:41.54 |  1:40.63 |    273129    |   280691
       38  | 62:22.42 |  2:02.59 |    280692    |   289900
       39  | 64:25.26 |  2:15.07 |    289901    |   300032
       40  | 66:40.33 |  1:16.27 |    300033    |   305759
       41  | 67:56.60 |  1:16.27 |    305760    |   311486
       42  | 69:13.12 |  1:21.57 |    311487    |   317618

Range status and errors

Selected range

     Filename D:\POST 2\538 Dance Smash Hits Of The Year 2014 (EAC)\CD3\538 Dance Smash Yearmix 2014 By Jan Hinke.wav

     Peak level 96.6 %
     Extraction speed 8.4 X
     Range quality 100.0 %
     Test CRC CDB107A1
     Copy CRC CDB107A1
     Copy OK

No errors occurred

AccurateRip summary

Track  1  not present in database
Track  2  not present in database
Track  3  not present in database
Track  4  not present in database
Track  5  not present in database
Track  6  not present in database
Track  7  not present in database
Track  8  not present in database
Track  9  not present in database
Track 10  not present in database
Track 11  not present in database
Track 12  not present in database
Track 13  not present in database
Track 14  not present in database
Track 15  not present in database
Track 16  not present in database
Track 17  not present in database
Track 18  not present in database
Track 19  not present in database
Track 20  not present in database
Track 21  not present in database
Track 22  not present in database
Track 23  not present in database
Track 24  not present in database
Track 25  not present in database
Track 26  not present in database
Track 27  not present in database
Track 28  not present in database
Track 29  not present in database
Track 30  not present in database
Track 31  not present in database
Track 32  not present in database
Track 33  not present in database
Track 34  not present in database
Track 35  not present in database
Track 36  not present in database
Track 37  not present in database
Track 38  not present in database
Track 39  not present in database
Track 40  not present in database
Track 41  not present in database
Track 42  not present in database

None of the tracks are present in the AccurateRip database

End of status report
Код:
Код: Выделить всё
-----------------------

DON'T MODIFY THIS FILE

-----------------------

PERFORMER: auCDtect Task Manager, ver. 1.6.0 RC1 build 1.6.0.1
Copyright (c) 2008-2010 y-soft. All rights reserved
http:/y-soft.org

ANALYZER: auCDtect: CD records authenticity detector, version 0.8.2
Copyright (c) 2004 Oleg Berngardt. All rights reserved.
Copyright (c) 2004 Alexander Djourik. All rights reserved.

FILE: 538 Dance Smash Yearmix 2014 By Jan Hinke.flac
  Size: 556778317 Hash: 367B6DE334999D84AB67ECD81834E83A Accuracy: -m0
  Conclusion: CDDA 100%
  Signature: 7C86BD7C1FF24F04EA183F7BDCAB9ADABA649676



Код: Выделить всё
[b]Поглощение/вытеснение [/b]
[b]Только с согласия релизера[/b]
[b][u][i]gvm55[/b][/i][/u]

Время раздачи: 24/7 - до первых 15 сидов, далее по необходимости.
 
Не забывайте говорить Спасибо. Не уходите с раздачи!   
Торрент: Зарегистрирован [08 дек 2014, 13:27] Скачать торрент
Скачать торрент
[ Размер 18.13 КБ / Просмотров 41 ]
Статус:
Проверен
 
.torrent скачан: 0 раз
Хэш: 02a5ab498e8fe09308dce34eebd8e7de39dd6f15
Размер: 1.61 ГБ (1 729 384 622 байт)
Стать Автором раздачи
 
 
Раздал: 6.67 ГБ
Скачал: 302.5 МБ
Ратио: 22.576
Сообщения: 374198
Зарегистрирован: 17 апр 2014, 11:05


  • Похожие торренты
    Ответы
    Просмотры
    Последнее сообщение

Вернуться в House, Techno, Electro, Minimal (транзит Lossless)

Ресурс не предоставляет электронные версии произведений, а занимается лишь коллекционированием и каталогизацией ссылок, присылаемых и публикуемых на форуме нашими читателями. Если вы являетесь правообладателем какого-либо представленного материала и не желаете чтобы ссылка на него находилась в нашем каталоге, свяжитесь с нами и мы незамедлительно удалим её. Файлы для обмена на трекере предоставлены пользователями сайта, и администрация не несёт ответственности за их содержание. Просьба не заливать файлы, защищенные авторскими правами, а также файлы нелегального содержания!
cron