Various Artists - Pure Salinas Vol 4 (Compiled By Bruno From Ibiza) (17 August, 2012) [FLAC|Lossless]<Balearic, Downtempo>

 
 Статистика раздачи 
Размер: 977.05 МБ   |  Зарегистрирован: 06 дек 2014, 21:58   |   .torrent скачан: 0 раз
Сидеров: 1  [ 0 байт/сек ]     Личеров: 0  [ 0 байт/сек ]  
  

Various Artists - Pure Salinas Vol 4 (Compiled By Bruno From Ibiza) (17 August, 2012) [FLAC|Lossless]<Balearic, Downtempo>

Сообщение Thistoll » 06 дек 2014, 21:58

Various Artists - Pure Salinas Vol 4 (Compiled By Bruno From Ibiza) (17 August, 2012)

Лейбл/Кат.#: Clubstar Germany – CLS 0002772D
Год: 17 August, 2012
Жанр: Balearic, Downtempo
Продолжительность: CD 1 01:05:32, CD 2 01:04:40

Кодек: FLAC (tracks + .cue)
Битрейт: Lossless


Треклист: CD 1:
01. Quintus Project - Night Flight (original mix) (7:43)
02. MiDiMAN - Seduction (original mix) (7:12)
03. Space Ranger - Nothing's Wrong (Barbena remix) (6:43)
04. Jack Pattern - Raumbad (original mix) (7:05)
05. John Gazoo - Midnight Runner (John Gazoos second version) (7:09)
06. Mike Salta - Escape From Rico Bay (Drop Out Orchestra club cut) (6:19)
07. Hiem & Phil Oakey - 2AM (Fernando & Toomy disco remix) (6:48)
08. The Heels Of Love - Flight 707 (Jadoo remix) (5:54)
09. Babi - Ruzull (Bono Goldbaum remix) (7:36)
10. Rami Deejay - Disengage (feat Keely Timlin - original mix) (6:44)
11. Crazy P - Beatbox (PBR Streetgang remix) (7:12)
01. Phonique - Vincent Price (original mix) (7:30)
02. Toky - About You (Hot Since 82 remix) (8:03)
03. NTFO - Policrom (Audiojack remix) (6:57)
04. Hot Since 82 - Let It Ride (original mix) (6:55)
05. Huxley - Let It Go (original mix) (6:53)
06. Oren Bi - Under Sleeve (Nils Penner remix) (7:13)
07. Alex Sosa - Grid Groove (original mix) (8:50)
08. Dimi Wilson - Giorikas (original mix) (7:26)
09. Hamza - Sun Blazin (original mix) (7:26)
10. Sebastian Davidson - Miles Away (Spirit Catcher remix) (6:55)
11. Adana Twins - Everyday (6:52)
Код:
Код: Выделить всё
Exact Audio Copy V1.0 beta 1 from 15. November 2010

EAC extraction logfile from 16. October 2012, 21:55

Various / CD1 - Pure Salinas vol.4

Used drive  : ASUS    DRW-24B3ST   Adapter: 3  ID: 0

Read mode               : Secure
Utilize accurate stream : Yes
Defeat audio cache      : Yes
Make use of C2 pointers : No

Read offset correction                      : 6
Overread into Lead-In and Lead-Out          : No
Fill up missing offset samples with silence : Yes
Delete leading and trailing silent blocks   : No
Null samples used in CRC calculations       : Yes
Used interface                              : Native Win32 interface for Win NT & 2000
Gap handling                                : Appended to previous track

Used output format              : User Defined Encoder
Selected bitrate                : 1024 kBit/s
Quality                         : High
Add ID3 tag                     : No
Command line compressor         : C:\Program Files\Exact Audio Copy\Flac\flac.exe
Additional command line options : -8 -V -T "ARTIST=%a" -T "TITLE=%t" -T "ALBUM=%g" -T "DATE=%y" -T "TRACKNUMBER=%n" -T "GENRE=%m" -T "COMMENT=ripped by Oleandris" %s

TOC of the extracted CD

     Track |   Start  |  Length  | Start sector | End sector
    ---------------------------------------------------------
        1  |  0:00.00 |  7:25.45 |         0    |    33419
        2  |  7:25.45 |  6:32.01 |     33420    |    62820
        3  | 13:57.46 |  4:47.04 |     62821    |    84349
        4  | 18:44.50 |  6:25.48 |     84350    |   113272
        5  | 25:10.23 |  5:47.29 |    113273    |   139326
        6  | 30:57.52 |  5:34.42 |    139327    |   164418
        7  | 36:32.19 |  5:34.34 |    164419    |   189502
        8  | 42:06.53 |  5:06.11 |    189503    |   212463
        9  | 47:12.64 |  6:56.04 |    212464    |   243667
       10  | 54:08.68 |  5:46.28 |    243668    |   269645
       11  | 59:55.21 |  5:37.00 |    269646    |   294920

Track  1

     Filename F:\ЗАГРУЗКИ\ Pure Salinas vol. 4 Mixed by Bruno From Ibiza 2CD (2012)\CD1\01. Quintus Project - Night Flight ( Original).wav

     Pre-gap length  0:00:02.00

     Peak level 96.6 %
     Extraction speed 3.9 X
     Track quality 100.0 %
     Test CRC 996E5AEB
     Copy CRC 996E5AEB
     Track not present in AccurateRip database
     Copy OK

Track  2

     Filename F:\ЗАГРУЗКИ\ Pure Salinas vol. 4 Mixed by Bruno From Ibiza 2CD (2012)\CD1\02. MiDiMAN - Seduction (Original Mix).wav

     Peak level 96.6 %
     Extraction speed 4.5 X
     Track quality 100.0 %
     Test CRC 783B0737
     Copy CRC 783B0737
     Track not present in AccurateRip database
     Copy OK

Track  3

     Filename F:\ЗАГРУЗКИ\ Pure Salinas vol. 4 Mixed by Bruno From Ibiza 2CD (2012)\CD1\03. Space Ranger - Nothing's Wrong (Barbena Remix).wav

     Peak level 96.6 %
     Extraction speed 4.7 X
     Track quality 100.0 %
     Test CRC 9195361D
     Copy CRC 9195361D
     Track not present in AccurateRip database
     Copy OK

Track  4

     Filename F:\ЗАГРУЗКИ\ Pure Salinas vol. 4 Mixed by Bruno From Ibiza 2CD (2012)\CD1\04. Jack Pattern - Raumbad (Original Mix).wav

     Peak level 96.6 %
     Extraction speed 5.3 X
     Track quality 100.0 %
     Test CRC 5060F459
     Copy CRC 5060F459
     Track not present in AccurateRip database
     Copy OK

Track  5

     Filename F:\ЗАГРУЗКИ\ Pure Salinas vol. 4 Mixed by Bruno From Ibiza 2CD (2012)\CD1\05. John Gazoo - Midnight Runner (John Gazoo's Second Version).wav

     Peak level 96.6 %
     Extraction speed 5.7 X
     Track quality 100.0 %
     Test CRC 6FCA873D
     Copy CRC 6FCA873D
     Track not present in AccurateRip database
     Copy OK

Track  6

     Filename F:\ЗАГРУЗКИ\ Pure Salinas vol. 4 Mixed by Bruno From Ibiza 2CD (2012)\CD1\06. Mike Salta - Escape From Rico Bay ( Drop Out Orchestra Club Cut).wav

     Peak level 96.6 %
     Extraction speed 6.0 X
     Track quality 100.0 %
     Test CRC B5B3D349
     Copy CRC B5B3D349
     Track not present in AccurateRip database
     Copy OK

Track  7

     Filename F:\ЗАГРУЗКИ\ Pure Salinas vol. 4 Mixed by Bruno From Ibiza 2CD (2012)\CD1\07. Hiem & Phil Oakey - 2AM (Fernando & Toomy Disco Remix).wav

     Peak level 96.6 %
     Extraction speed 6.3 X
     Track quality 100.0 %
     Test CRC 2AB40DDD
     Copy CRC 2AB40DDD
     Track not present in AccurateRip database
     Copy OK

Track  8

     Filename F:\ЗАГРУЗКИ\ Pure Salinas vol. 4 Mixed by Bruno From Ibiza 2CD (2012)\CD1\08. The Heels Of Love - Flight 707 (Jadoo Remix).wav

     Peak level 96.6 %
     Extraction speed 5.4 X
     Track quality 99.9 %
     Test CRC 89F66FE5
     Copy CRC 89F66FE5
     Track not present in AccurateRip database
     Copy OK

Track  9

     Filename F:\ЗАГРУЗКИ\ Pure Salinas vol. 4 Mixed by Bruno From Ibiza 2CD (2012)\CD1\09. Babi - Ruzull (Bono Goldbaum Remix).wav

     Peak level 96.6 %
     Extraction speed 6.0 X
     Track quality 99.9 %
     Test CRC E99E11B7
     Copy CRC E99E11B7
     Track not present in AccurateRip database
     Copy OK

Track 10

     Filename F:\ЗАГРУЗКИ\ Pure Salinas vol. 4 Mixed by Bruno From Ibiza 2CD (2012)\CD1\10. Rami Deejay Feat. Keely Timlin - Disengage (Original Mix).wav

     Peak level 96.6 %
     Extraction speed 7.2 X
     Track quality 100.0 %
     Test CRC A1BDD937
     Copy CRC A1BDD937
     Track not present in AccurateRip database
     Copy OK

Track 11

     Filename F:\ЗАГРУЗКИ\ Pure Salinas vol. 4 Mixed by Bruno From Ibiza 2CD (2012)\CD1\11. Crazy P - Beatbox (PBR Streetgang Remix).wav

     Peak level 96.6 %
     Extraction speed 7.4 X
     Track quality 100.0 %
     Test CRC D3CCC571
     Copy CRC D3CCC571
     Track not present in AccurateRip database
     Copy OK

None of the tracks are present in the AccurateRip database

No errors occurred

End of status report

==== Log checksum 792F2E9C1F884FA2F7377A09B296AB1444F67BAEDE2B9419798CE26C56171CE3 ====
Код:
Код: Выделить всё
Exact Audio Copy V1.0 beta 1 from 15. November 2010

EAC extraction logfile from 16. October 2012, 22:34

Various / CD2 - Pure Salinas Vol.4

Used drive  : PLEXTOR DVDR   PX-L890SA   Adapter: 5  ID: 0

Read mode               : Secure
Utilize accurate stream : Yes
Defeat audio cache      : Yes
Make use of C2 pointers : No

Read offset correction                      : 6
Overread into Lead-In and Lead-Out          : No
Fill up missing offset samples with silence : Yes
Delete leading and trailing silent blocks   : No
Null samples used in CRC calculations       : Yes
Used interface                              : Native Win32 interface for Win NT & 2000
Gap handling                                : Appended to previous track

Used output format              : User Defined Encoder
Selected bitrate                : 1024 kBit/s
Quality                         : High
Add ID3 tag                     : No
Command line compressor         : C:\Program Files\Exact Audio Copy\Flac\flac.exe
Additional command line options : -8 -V -T "ARTIST=%a" -T "TITLE=%t" -T "ALBUM=%g" -T "DATE=%y" -T "TRACKNUMBER=%n" -T "GENRE=%m" -T "COMMENT=ripped by Oleandris" %s

TOC of the extracted CD

     Track |   Start  |  Length  | Start sector | End sector
    ---------------------------------------------------------
        1  |  0:00.00 |  7:21.62 |         0    |    33136
        2  |  7:21.62 |  6:14.47 |     33137    |    61233
        3  | 13:36.34 |  5:41.36 |     61234    |    86844
        4  | 19:17.70 |  4:40.73 |     86845    |   107917
        5  | 23:58.68 |  5:41.35 |    107918    |   133527
        6  | 29:40.28 |  5:09.51 |    133528    |   156753
        7  | 34:50.04 |  7:13.31 |    156754    |   189259
        8  | 42:03.35 |  5:40.57 |    189260    |   214816
        9  | 47:44.17 |  6:56.10 |    214817    |   246026
       10  | 54:40.27 |  4:25.13 |    246027    |   265914
       11  | 59:05.40 |  5:34.62 |    265915    |   291026

Track  1

     Filename F:\ЗАГРУЗКИ\ Pure Salinas vol. 4 Mixed by Bruno From Ibiza 2CD (2012)\CD2\01. Phonique - Vincent Price (Original Mix).wav

     Pre-gap length  0:00:02.00

     Peak level 96.6 %
     Extraction speed 4.0 X
     Track quality 100.0 %
     Test CRC 57C1FC4C
     Copy CRC 57C1FC4C
     Track not present in AccurateRip database
     Copy OK

Track  2

     Filename F:\ЗАГРУЗКИ\ Pure Salinas vol. 4 Mixed by Bruno From Ibiza 2CD (2012)\CD2\02. Toky - About You (Hot Since 82 Remix).wav

     Peak level 96.6 %
     Extraction speed 4.7 X
     Track quality 100.0 %
     Test CRC 6BDBE751
     Copy CRC 6BDBE751
     Track not present in AccurateRip database
     Copy OK

Track  3

     Filename F:\ЗАГРУЗКИ\ Pure Salinas vol. 4 Mixed by Bruno From Ibiza 2CD (2012)\CD2\03. NTFO - Policrom (Audiojack Remix).wav

     Peak level 96.6 %
     Extraction speed 5.0 X
     Track quality 100.0 %
     Test CRC 5FE3A18A
     Copy CRC 5FE3A18A
     Track not present in AccurateRip database
     Copy OK

Track  4

     Filename F:\ЗАГРУЗКИ\ Pure Salinas vol. 4 Mixed by Bruno From Ibiza 2CD (2012)\CD2\04. Hot Since 82 - Let It Ride (Original Mix).wav

     Peak level 96.6 %
     Extraction speed 5.3 X
     Track quality 100.0 %
     Test CRC F083A4D0
     Copy CRC F083A4D0
     Track not present in AccurateRip database
     Copy OK

Track  5

     Filename F:\ЗАГРУЗКИ\ Pure Salinas vol. 4 Mixed by Bruno From Ibiza 2CD (2012)\CD2\05. Huxley - Let It Go (Original Mix).wav

     Peak level 96.6 %
     Extraction speed 5.9 X
     Track quality 100.0 %
     Test CRC 8A383E4D
     Copy CRC 8A383E4D
     Track not present in AccurateRip database
     Copy OK

Track  6

     Filename F:\ЗАГРУЗКИ\ Pure Salinas vol. 4 Mixed by Bruno From Ibiza 2CD (2012)\CD2\06. Oren Bi - Under Sleeve ( Nils Penner Remix).wav

     Peak level 96.6 %
     Extraction speed 6.1 X
     Track quality 100.0 %
     Test CRC A2F2A461
     Copy CRC A2F2A461
     Track not present in AccurateRip database
     Copy OK

Track  7

     Filename F:\ЗАГРУЗКИ\ Pure Salinas vol. 4 Mixed by Bruno From Ibiza 2CD (2012)\CD2\07. Alex Sosa - Grid Groove (Original Mix).wav

     Peak level 96.6 %
     Extraction speed 6.7 X
     Track quality 100.0 %
     Test CRC C20262B4
     Copy CRC C20262B4
     Track not present in AccurateRip database
     Copy OK

Track  8

     Filename F:\ЗАГРУЗКИ\ Pure Salinas vol. 4 Mixed by Bruno From Ibiza 2CD (2012)\CD2\08. Dimi Wilson - Giorikas (Original Mix).wav

     Peak level 96.6 %
     Extraction speed 7.0 X
     Track quality 100.0 %
     Test CRC 343BFD81
     Copy CRC 343BFD81
     Track not present in AccurateRip database
     Copy OK

Track  9

     Filename F:\ЗАГРУЗКИ\ Pure Salinas vol. 4 Mixed by Bruno From Ibiza 2CD (2012)\CD2\09. Hamza - Sun Blazin (Original Mix).wav

     Peak level 96.6 %
     Extraction speed 7.5 X
     Track quality 100.0 %
     Test CRC 7CC6C27B
     Copy CRC 7CC6C27B
     Track not present in AccurateRip database
     Copy OK

Track 10

     Filename F:\ЗАГРУЗКИ\ Pure Salinas vol. 4 Mixed by Bruno From Ibiza 2CD (2012)\CD2\10. Sebastian Davidson - Miles Away (Spirit Catcher).wav

     Peak level 96.6 %
     Extraction speed 7.4 X
     Track quality 100.0 %
     Test CRC 14658736
     Copy CRC 14658736
     Track not present in AccurateRip database
     Copy OK

Track 11

     Filename F:\ЗАГРУЗКИ\ Pure Salinas vol. 4 Mixed by Bruno From Ibiza 2CD (2012)\CD2\11. Adana Twins - Everyday.wav

     Peak level 96.6 %
     Extraction speed 7.9 X
     Track quality 100.0 %
     Test CRC F5E10686
     Copy CRC F5E10686
     Track not present in AccurateRip database
     Copy OK

None of the tracks are present in the AccurateRip database

No errors occurred

End of status report

==== Log checksum 3DF99FAE82F4A9E3189ED03A98B3A1AD03D65CE7219F711DB4C1049BE2F11C81 ====
Код:
Код: Выделить всё
-----------------------

DON'T MODIFY THIS FILE

-----------------------

PERFORMER: auCDtect Task Manager, ver. 1.6.0 RC1 build 1.6.0.1
Copyright (c) 2008-2010 y-soft. All rights reserved
http:/y-soft.org

ANALYZER: auCDtect: CD records authenticity detector, version 0.8.2
Copyright (c) 2004 Oleg Berngardt. All rights reserved.
Copyright (c) 2004 Alexander Djourik. All rights reserved.

FILE: 11. Crazy P - Beatbox (PBR Streetgang Remix).flac
  Size: 38680232 Hash: C8F14017EE1A29338E648B472483FD5F Accuracy: -m0
  Conclusion: CDDA 99%
  Signature: D67533B3476FF3DC19670E78304E746456180619
FILE: 10. Rami Deejay Feat. Keely Timlin - Disengage (Original Mix).flac
  Size: 41905879 Hash: FCC4110ABF824B2EEB01847F3003261B Accuracy: -m0
  Conclusion: CDDA 100%
  Signature: BFFB443CAB8D3FF845880B4A3AA4FE29C9244F2D
FILE: 09. Babi - Ruzull (Bono Goldbaum Remix).flac
  Size: 48497444 Hash: F52B2B2FE86AD5B51A3E20312697E5F7 Accuracy: -m0
  Conclusion: CDDA 100%
  Signature: C8C7E1D69B13305CD67883F3DAFEEB06A77B6191
FILE: 08. The Heels Of Love - Flight 707 (Jadoo Remix).flac
  Size: 39106263 Hash: A9836A5C7658DF2BE8B37F9938A39257 Accuracy: -m0
  Conclusion: CDDA 100%
  Signature: 05D484639D54EC0CD6DE721D9B0D9D3AC8C33D9B
FILE: 07. Hiem & Phil Oakey - 2AM (Fernando & Toomy Disco Remix).flac
  Size: 39136332 Hash: 59D336CA8F8EE5B2AE73C49F527F4C9A Accuracy: -m0
  Conclusion: CDDA 100%
  Signature: 50A2DE26B3588F1CBBAE29310927F13E9970D9B3
FILE: 06. Mike Salta - Escape From Rico Bay ( Drop Out Orchestra Club Cut).flac
  Size: 40412272 Hash: BE542C2E84BAC8C253316A27C6C0BC97 Accuracy: -m0
  Conclusion: CDDA 100%
  Signature: A060B18FBD8B9B92DDBA89576704F66C05C5BFD1
FILE: 05. John Gazoo - Midnight Runner (John Gazoo's Second Version).flac
  Size: 38202000 Hash: 7020A972E996D841C4B0565F7F25B0FD Accuracy: -m0
  Conclusion: MPEG 95%
  Signature: 533CAB551F481F5E14759C6F68AC53D142F95655
FILE: 04. Jack Pattern - Raumbad (Original Mix).flac
  Size: 41191621 Hash: 64B2C0CA8FC01F7BCFB3F4105521F5C1 Accuracy: -m0
  Conclusion: CDDA 100%
  Signature: 2DC442CE8E0628ECBD712A95A8FB488ECDC386A8
FILE: 03. Space Ranger - Nothing's Wrong (Barbena Remix).flac
  Size: 31934198 Hash: EE590EA860CF19858A604913FF133D01 Accuracy: -m0
  Conclusion: CDDA 100%
  Signature: 4178B3FA62B4B2AF896BABD27412BFDCAA521F5C
FILE: 02. MiDiMAN - Seduction (Original Mix).flac
  Size: 45886550 Hash: 1818CA21761DBDA87D74AF6E5031564D Accuracy: -m0
  Conclusion: CDDA 100%
  Signature: 6D41A46F5B04F260EB77BC37BAF6CD198ABCC638
FILE: 01. Quintus Project - Night Flight ( Original).flac
  Size: 54217639 Hash: 75A94375AC6EED82630102CDAEEE02CD Accuracy: -m0
  Conclusion: CDDA 100%
  Signature: 5544B2C87D0FECDBF2EA684D0588ED1CB9327F93
Код:
Код: Выделить всё
-----------------------

DON'T MODIFY THIS FILE

-----------------------

PERFORMER: auCDtect Task Manager, ver. 1.6.0 RC1 build 1.6.0.1
Copyright (c) 2008-2010 y-soft. All rights reserved
http:/y-soft.org

ANALYZER: auCDtect: CD records authenticity detector, version 0.8.2
Copyright (c) 2004 Oleg Berngardt. All rights reserved.
Copyright (c) 2004 Alexander Djourik. All rights reserved.

FILE: 11. Adana Twins - Everyday.flac
  Size: 38343557 Hash: ABD4913390385C161DD4A74A7FBC551A Accuracy: -m0
  Conclusion: CDDA 100%
  Signature: 0270DD9DBC6187E30D017CCED907CAF64C5877B1
FILE: 10. Sebastian Davidson - Miles Away (Spirit Catcher).flac
  Size: 33427786 Hash: A8A27414B57A996C1628AF7ACADE57B8 Accuracy: -m0
  Conclusion: CDDA 100%
  Signature: B01D73A189EFF1FF8D841321D0E790522574A810
FILE: 09. Hamza - Sun Blazin (Original Mix).flac
  Size: 50337950 Hash: 4B287CE877B1184185FD4EC368C561FC Accuracy: -m0
  Conclusion: CDDA 100%
  Signature: 3DDAFCA7E9B030D75B3237CD21029C8194B700C8
FILE: 08. Dimi Wilson - Giorikas (Original Mix).flac
  Size: 35521066 Hash: 9451A50D0965FFA75C2E72C3A15F2D86 Accuracy: -m0
  Conclusion: CDDA 100%
  Signature: 08A31753A75D1D9ECE51DD4CCCC1610CF40824DB
FILE: 07. Alex Sosa - Grid Groove (Original Mix).flac
  Size: 49080178 Hash: 0572891FFDCFDB68C7CF6D4AD6A3AD81 Accuracy: -m0
  Conclusion: CDDA 100%
  Signature: D3F3973D286367AB5F8213EF8E6DCCBD5821FE56
FILE: 06. Oren Bi - Under Sleeve ( Nils Penner Remix).flac
  Size: 38561136 Hash: B1D3C5D62DCA3A0999B1CCE62CA76D1F Accuracy: -m0
  Conclusion: MPEG 95%
  Signature: 4AB40AB4B1E5A18A4D079285428FF03E2F4241AF
FILE: 05. Huxley - Let It Go (Original Mix).flac
  Size: 41887180 Hash: CBFD28EEEA7B1C73F75BA5FEC7C5A75C Accuracy: -m0
  Conclusion: CDDA 100%
  Signature: 703D8352428B6FB580F14A4FE1501D2F0EA8CDC8
FILE: 04. Hot Since 82 - Let It Ride (Original Mix).flac
  Size: 37297419 Hash: 8B8B3F60AF4B45EAFC395E9B0EBC11F6 Accuracy: -m0
  Conclusion: CDDA 100%
  Signature: D79DE518040A20186B24074F8A8894DD6EE41705
FILE: 03. NTFO - Policrom (Audiojack Remix).flac
  Size: 40061266 Hash: F1D6E3ACF4A38CA6D21F6AE3064FB238 Accuracy: -m0
  Conclusion: CDDA 100%
  Signature: 3E36ECCAD10A70C2B08803C8654ABF19E5FFB653
FILE: 02. Toky - About You (Hot Since 82 Remix).flac
  Size: 44268855 Hash: 504CA583AAFAE3BE221E5C47691AA458 Accuracy: -m0
  Conclusion: CDDA 100%
  Signature: 438E5EFFFFAC9277F14AA15AD65856192EF9B027
FILE: 01. Phonique - Vincent Price (Original Mix).flac
  Size: 46747915 Hash: 3F064861EFC87DF14161D815B8CF5D5E Accuracy: -m0
  Conclusion: CDDA 100%
  Signature: A7B3C2A7A3C1DDEBDE71A7666BC828DD0CCBC48E
Время раздачи: Пн-Пт с 18:00 до 22:00, Сб-Вс с 09:00 до 23:30
 
Не забывайте говорить Спасибо. Не уходите с раздачи!   
Торрент: Зарегистрирован [06 дек 2014, 21:58] Скачать торрент
Скачать торрент
[ Размер 22.96 КБ / Просмотров 28 ]
Статус:
Проверен
 
.torrent скачан: 0 раз
Хэш: a2bca7b3b453cc50f9d603f50c96b58b839be94f
Размер: 977.05 МБ (1 024 511 789 байт)
Стать Автором раздачи
 
 
Раздал: 6.67 ГБ
Скачал: 302.5 МБ
Ратио: 22.576
Сообщения: 374198
Зарегистрирован: 17 апр 2014, 11:05


  • Похожие торренты
    Ответы
    Просмотры
    Последнее сообщение

Вернуться в House, Techno, Electro, Minimal (транзит Lossless)

Ресурс не предоставляет электронные версии произведений, а занимается лишь коллекционированием и каталогизацией ссылок, присылаемых и публикуемых на форуме нашими читателями. Если вы являетесь правообладателем какого-либо представленного материала и не желаете чтобы ссылка на него находилась в нашем каталоге, свяжитесь с нами и мы незамедлительно удалим её. Файлы для обмена на трекере предоставлены пользователями сайта, и администрация не несёт ответственности за их содержание. Просьба не заливать файлы, защищенные авторскими правами, а также файлы нелегального содержания!
cron