Флэш (The Flash) / (Сезон 1, серии 1-8 из 13) LostFilm (2014) [MP4|1280x718] <WEB-DLRip H.264>

 
 Статистика раздачи 
Размер: 10.57 ГБ   |  Зарегистрирован: 05 дек 2014, 19:43   |   .torrent скачан: 0 раз
Сидеров: 1  [ 0 байт/сек ]     Личеров: 0  [ 0 байт/сек ]  
  

Флэш (The Flash) / (Сезон 1, серии 1-8 из 13) LostFilm (2014) [MP4|1280x718] <WEB-DLRip H.264>

Сообщение Thistoll » 05 дек 2014, 19:43

Флэш (The Flash) / (Сезон 1, серии 1-8 из 23) LostFilm (2014) WEB-DLRip
«Discover what makes a hero»

Год выпуска: 2014
Жанр: фантастика, фэнтези, боевик, драма, приключения
Страна: США

Описание фильма:
Сериал основан на супергерое DC Comics по имени Флэш (Барри Аллен), борце с преступностью в костюме, который был создан Робертом Кнайгером, Джоном Брумом и Кармином Инфантино. Является спин-оффом сериала «Стрела» и происходит в той же вселенной.

Из-за несчастного случая судмедэксперт Барри Аллен приобретает способность передвигаться с невероятной скоростью. Этот случай делает из него супергероя, которым он всегда мечтал стать. Защищая город, как ангел-хранитель, делая невозможное, спасая жизни со скоростью вспышки, по подсказке Оливера Куина (Стрела), он берёт себе и соответствующее имя - Флэш...

Режиссер: Дэвид Наттер
Актеры: Грант Гастин, Кэндис Паттон, Рик Коснетт, Даниэль Панабэйкер, Карлос Вальдес, Томас Кэвэна, Джесси Л. Мартин, Джон Уэсли Шипп, Стивен Амелл, Ёсиэ Бэнкрофт и др.

Продолжительность: ~ 00:44:00 серия
Качество видео: WEB-DLRip 720p

Перевод: Многоголосый закадровый, профессиональный - LostFilm
Озвучка / Автор перевода: Студия «LostFilm»

Сэмпл
Дата мировой премьеры: 7 октября 2014

Формат: MP4
Видеокодек: MPEG-4 AVC/H.264
Битрейт видео: ~4264 Кбит/сек
Размер кадра: 1280x718 (16:9)
Аудиокодек: AAC, 2 канала
Битрейт аудио: ~247 Кбит/сек
Полное имя : D:\The_Flash_s1_WEB-DL720p_x264_LostFilm_[NNM-CLUB]\The.Flash.S01E01.720p.WEB.rus.LostFilm.TV.mp4
Формат : MPEG-4
Профиль формата : Base Media
Идентификатор кодека : isom
Размер файла : 1,41 Гбайт
Продолжительность : 44 м.
Режим общего битрейта : Переменный
Общий поток : 4516 Кбит/сек
Коллекция : Флэш
Сезон : 1
Альбом : Флэш, Сезон 1
Альбом/Исполнитель : Флэш
Часть : 1
Часть/Положение : 1
Трек : Город героев
Трек/Положение : 1
Исполнитель : Флэш
Жанр : Sci-Fi & Fantasy
Тип содержимого : TV Show
Дата записи : 2014
Дата кодирования : UTC 2014-10-08 20:18:39
Дата пометки : UTC 2014-10-08 20:18:39
Программа кодирования : Yamb 2.1.0.0 [http://yamb.unite-video.com] / LostCoder
Обложка : Yes
Примечание : Во время взрыва ускорителя частиц в научной лаборатории в Брри Аллена ударяет молния и он впадает в кому. Очнувшись через 9 месяцев, он понимает, что стал обладателем уникальной способности бегать быстрее скорости света.
Part_ID : 101
rati : (Binary)

Видео
Идентификатор : 1
Формат : AVC
Формат/Информация : Advanced Video Codec
Профиль формата :
Параметр CABAC формата : Нет
Параметр ReFrames формата : 2 кадра
Идентификатор кодека : avc1
Идентификатор кодека/Информация : Advanced Video Coding
Продолжительность : 44 м.
Битрейт : 4264 Кбит/сек
Номинальный битрейт : 4000 Кбит/сек
Максимальный битрейт : 13,7 Мбит/сек
Ширина : 1280 пикселей
Высота : 718 пикселей
Соотношение сторон : 16:9
Режим частоты кадров : Переменный
Частота кадров : 23,976 кадра/сек
Минимальная частота кадров : 23,974 кадра/сек
Максимальная частота кадров : 23,981 кадра/сек
Цветовое пространство : YUV
Субдискретизация насыщенности : 4:2:0
Битовая глубина : 8 бит
Тип развёртки : Прогрессивная
Бит/(Пиксели*Кадры) : 0.194
Размер потока : 1,33 Гбайт (94%)
Библиотека кодирования : x264 core 112 r1834 a51816a
Настройки программы : cabac=0 / ref=3 / deblock=1:0:0 / analyse=0x1:0x111 / me=hex / subme=7 / psy=1 / psy_rd=1.00:0.00 / mixed_ref=1 / me_range=16 / chroma_me=1 / trellis=1 / 8x8dct=0 / cqm=0 / deadzone=21,11 / fast_pskip=1 / chroma_qp_offset=-2 / threads=6 / sliced_threads=0 / nr=0 / decimate=1 / interlaced=0 / constrained_intra=0 / bframes=3 / b_pyramid=2 / b_adapt=1 / b_bias=0 / direct=1 / weightb=1 / open_gop=0 / weightp=2 / keyint=250 / keyint_min=25 / scenecut=40 / intra_refresh=0 / rc_lookahead=40 / rc=abr / mbtree=1 / bitrate=4000 / ratetol=1.0 / qcomp=0.60 / qpmin=0 / qpmax=51 / qpstep=4 / vbv_maxrate=5000 / vbv_bufsize=2000 / ip_ratio=1.40 / aq=1:1.00 / nal_hrd=none
Язык : English
Дата пометки : UTC 2014-10-08 20:19:52
Основные цвета : BT.709
Характеристики трансфера : BT.709
Коэффициенты матрицы : BT.709

Аудио
Идентификатор : 2
Формат : AAC
Формат/Информация : Advanced Audio Codec
Профиль формата : LC
Идентификатор кодека : 40
Продолжительность : 44 м.
Вид битрейта : Переменный
Битрейт : 247 Кбит/сек
Максимальный битрейт : 314 Кбит/сек
Каналы : 2 канала
Расположение каналов : Front: L R
Частота : 48,0 КГц
Метод сжатия : С потерями
Размер потока : 78,9 Мбайт (5%)
Дата кодирования : UTC 2014-10-08 20:19:47
Дата пометки : UTC 2014-10-08 20:19:52
01 - Пилот / Pilot
02 - Самый быстрый человек в мире / Fastest Man Alive
03 - Кое-что перегнать нельзя / Things You Can't Outrun
04 - Самоволка / Going Rogue
05 - ПластИк / Plastique
06 - Рождение Флэша / The Flash Is Born
07 - Отключение энергии / Power Outage
08 - Флэш против Стрелы / Flash vs Arrow
Внимание! Раздача ведётся путём добавления новых серий; при каждом добавлении создаётся новый торрент.
Чтобы начать докачку новой серии, пользователям необходимо сделать следующее:
1. Остановить скачивание;
2. Удалить старый торрент у себя из клиента (старые серии удалять не надо);
3. Скачать новый торрент и запустить его у себя в клиенте вместо старого, при этом указать клиенту путь в старую папку куда и должно происходить скачивание новых серий. Ваш клиент при этом должен произвести хеширование (проверку) старой папки и будет докачивать только те серии, которых у вас ещё нет. Старые серии при этом не удаляются, а продолжают раздаваться! Eсли вы уже удалили старые серии, то предотвратить повторную закачку старых серий можно, отжав галочку в соответствующих местах при запуске нового торрента.
Скриншоты:



Время раздачи:
24/7 - круглосуточно
(до первых 5-ти сидов - потом по возможности)
 
Не забывайте говорить Спасибо. Не уходите с раздачи!   
Торрент: Зарегистрирован [05 дек 2014, 19:43] Для скачивания .torrent
необходима регистрация
Или скачать с помощью
MediaGet
Статус:
Проверен
 
.torrent скачан: 0 раз
Хэш: 2b3369177d5ad6dba3155b63d7aea47d4b3f2535
Размер: 10.57 ГБ (11 352 818 000 байт)
Стать Автором раздачи
 
 
Раздал: 6.67 ГБ
Скачал: 302.5 МБ
Ратио: 22.576
Сообщения: 374198
Зарегистрирован: 17 апр 2014, 11:05


  • Похожие торренты
    Ответы
    Просмотры
    Последнее сообщение

Вернуться в Видео для мобильных устройств

Ресурс не предоставляет электронные версии произведений, а занимается лишь коллекционированием и каталогизацией ссылок, присылаемых и публикуемых на форуме нашими читателями. Если вы являетесь правообладателем какого-либо представленного материала и не желаете чтобы ссылка на него находилась в нашем каталоге, свяжитесь с нами и мы незамедлительно удалим её. Файлы для обмена на трекере предоставлены пользователями сайта, и администрация не несёт ответственности за их содержание. Просьба не заливать файлы, защищенные авторскими правами, а также файлы нелегального содержания!
cron