Тор (Thor) (2011) [MP4|1280x540] <BDRip H.264>

 
 Статистика раздачи 
Размер: 3.22 ГБ   |  Зарегистрирован: 03 дек 2014, 08:33   |   .torrent скачан: 0 раз
Сидеров: 1  [ 0 байт/сек ]     Личеров: 1  [ 0 байт/сек ]  
  

Тор (Thor) (2011) [MP4|1280x540] <BDRip H.264>

Сообщение BitFire » 03 дек 2014, 08:33

Тор (Thor) (2011) BDRip
«Мужество бессмертно»

Год выпуска: 2011
Жанр: Фэнтези, Приключения, Боевик
Страна: США

Описание фильма:
Художественный фильм режиссёра Кеннета Брана, основанный на одноимённых комиксах издательства Marvel Comics. Созданием картины занималась компания Marvel Studios, а распространением Paramount Pictures. Главный герой фильма — Тор, высокомерный и гордый бог грома, — был лишён своей силы и изгнан из Асгарда — одного из девяти миров. Оказавшись на Земле, он знакомится с молодым доктором Джейн Фостер, с которой у него развиваются отношения. Кроме того, Тор должен остановить своего брата Локи, который намерен стать новым царём Асгарда. Картина стала частью кинематографической вселенной Marvel, фильмы которой объединяются в общую сюжетную линию.

Режиссер: Кеннет Брэна, Джосс Уидон
Актеры: Крис Хемсворт, Натали Портман, Энтони Хопкинс, Том Хиддлстон, Рене Руссо, Джереми Реннер и др.

Продолжительность: 01:54:50
Качество видео: BDRip 720p
Перевод: Дублированный

Сэмпл

Дата мировой премьеры: 21 апреля 2011
Дата российской премьеры: 28 апреля 2011, «Централ Партнершип»
Дата выхода DVD / Blu-Ray релиза: 17 ноября 2011, «Новый Диск»

Формат: MP4
Видеокодек: MPEG-4 AVC/H.264
Битрейт видео: 3821 Кбит/сек
Размер кадра: 1280x540 (2,40:1)
Аудиокодек: AAC, 2 канала
Битрейт аудио: 192 Кбит/сек
Полное имя : E:\Video\[nnm-club]_Thor_2011_BDRip720p_x264.mp4
Формат : MPEG-4
Профиль формата : Base Media
Идентификатор кодека : isom
Размер файла : 3,22 Гбайт
Продолжительность : 1 ч. 54 м.
Общий поток : 4017 Кбит/сек
Программа кодирования : Lavf55.12.100

Видео
Идентификатор : 2
Формат : AVC
Формат/Информация : Advanced Video Codec
Профиль формата :
Параметр CABAC формата : Да
Параметр ReFrames формата : 8 кадров
Параметр GOP формата : M=1, N=12
Идентификатор кодека : avc1
Идентификатор кодека/Информация : Advanced Video Coding
Продолжительность : 1 ч. 54 м.
Битрейт : 3821 Кбит/сек
Ширина : 1280 пикселей
Высота : 540 пикселей
Соотношение сторон : 2,40:1
Режим частоты кадров : Постоянный
Частота кадров : 23,976 кадра/сек
Цветовое пространство : YUV
Субдискретизация насыщенности : 4:2:0
Битовая глубина : 8 бит
Тип развёртки : Прогрессивная
Бит/(Пиксели*Кадры) : 0.231
Размер потока : 3,07 Гбайт (95%)

Аудио
Идентификатор : 1
Формат : AAC
Формат/Информация : Advanced Audio Codec
Профиль формата : LC
Идентификатор кодека : 40
Продолжительность : 1 ч. 54 м.
Duration_LastFrame : -9 мс.
Вид битрейта : Постоянный
Битрейт : 192 Кбит/сек
Каналы : 2 канала
Расположение каналов : Front: L R
Частота : 48,0 КГц
Метод сжатия : С потерями
Размер потока : 158 Мбайт (5%)
Язык : Russian
Скриншоты:



Время раздачи:
24/7 - круглосуточно
(до первых 5-ти сидов - потом по возможности)

 
Не забывайте говорить Спасибо. Не уходите с раздачи!   
Торрент: Зарегистрирован [03 дек 2014, 08:33] Для скачивания .torrent
необходима регистрация
Или скачать с помощью
MediaGet
Статус:
Проверен
 
.torrent скачан: 0 раз
Хэш: 6ff97e54656417659decebfe352ec2d0875e646a
Размер: 3.22 ГБ (3 460 288 646 байт)
Стать Автором раздачи
 
 
Раздал: 398.6 ГБ
Скачал: 172 МБ
Ратио: 2373.085
Сообщения: 228130
Зарегистрирован: 17 апр 2014, 15:26


  • Похожие торренты
    Ответы
    Просмотры
    Последнее сообщение

Вернуться в Видео для мобильных устройств

Ресурс не предоставляет электронные версии произведений, а занимается лишь коллекционированием и каталогизацией ссылок, присылаемых и публикуемых на форуме нашими читателями. Если вы являетесь правообладателем какого-либо представленного материала и не желаете чтобы ссылка на него находилась в нашем каталоге, свяжитесь с нами и мы незамедлительно удалим её. Файлы для обмена на трекере предоставлены пользователями сайта, и администрация не несёт ответственности за их содержание. Просьба не заливать файлы, защищенные авторскими правами, а также файлы нелегального содержания!
cron