Deadmau5 - 5 Years of Mau5 (2014) [FLAC|Lossless]<Progressive House , Electro House>

 
 Статистика раздачи 
Размер: 925.16 МБ   |  Зарегистрирован: 02 дек 2014, 14:34   |   .torrent скачан: 0 раз
Сидеров: 1  [ 0 байт/сек ]     Личеров: 0  [ 0 байт/сек ]  
  

Deadmau5 - 5 Years of Mau5 (2014) [FLAC|Lossless]<Progressive House , Electro House>

Сообщение Thistoll » 02 дек 2014, 14:34

Deadmau5 - 5 Years of Mau5 (2014)




Год:
2014
Жанр: Progressive House , Electro House
Продолжительность: 02:22:54
Лейбл: Ultra Records
Каталог №: UL 5660-2
Тип рипа: tracks+.cue
Кодек: FLAC
Битрейт: Lossless

Трек лист:

Трек лист:

Трек лист:
01. Ghosts 'n' Stuff (5:28)
02. Raise Your Weapon (8:22)
03. I Remember (9:53)
04. Some Chords (7:27)
05. Strobe (6:19)
06. The Veldt (8:39)
07. Brazil (2nd Edit) (6:39)
08. Aural Psynapse (7:30)
09. Not Exactly (9:15)
10. Sofi Needs A Ladder (6:41)

Продолжительность: 01:16:13
Код:
Код: Выделить всё
Exact Audio Copy V1.0 beta 3 from 29. August 2011

EAC extraction logfile from 21. November 2014, 22:19

Deadmau5 / 5 years of mau5

Used drive  : HL-DT-STBD-RE  WH16NS40   Adapter: 2  ID: 0

Read mode               : Secure
Utilize accurate stream : Yes
Defeat audio cache      : Yes
Make use of C2 pointers : No

Read offset correction                      : 6
Overread into Lead-In and Lead-Out          : No
Fill up missing offset samples with silence : Yes
Delete leading and trailing silent blocks   : No
Null samples used in CRC calculations       : Yes
Used interface                              : Native Win32 interface for Win NT & 2000
Gap handling                                : Appended to previous track

Used output format              : User Defined Encoder
Selected bitrate                : 1024 kBit/s
Quality                         : High
Add ID3 tag                     : No
Command line compressor         : C:\Program Files (x86)\Exact Audio Copy\Flac\flac.exe
Additional command line options : -8 -V -T "ARTIST=%artist%" -T "TITLE=%title%" -T "ALBUM=%albumtitle%" -T "DATE=%year%" -T "TRACKNUMBER=%tracknr%" -T "GENRE=%genre%" -T "PERFORMER=%albuminterpret%" -T "COMPOSER=%composer%" %haslyrics%--tag-from-file=LYRICS="%lyricsfile%"%haslyrics% -T "ALBUMARTIST=%albumartist%" -T "DISCNUMBER=%cdnumber%" -T "TOTALDISCS=%totalcds%" -T "TOTALTRACKS=%numtracks%" -T "COMMENT=%comment%" %source% -o %dest%

TOC of the extracted CD

     Track |   Start  |  Length  | Start sector | End sector
    ---------------------------------------------------------
        1  |  0:00.00 |  5:28.56 |         0    |    24655
        2  |  5:28.56 |  8:22.69 |     24656    |    62374
        3  | 13:51.50 |  9:53.46 |     62375    |   106895
        4  | 23:45.21 |  7:27.19 |    106896    |   140439
        5  | 31:12.40 |  6:19.09 |    140440    |   168873
        6  | 37:31.49 |  8:39.64 |    168874    |   207862
        7  | 46:11.38 |  6:39.29 |    207863    |   237816
        8  | 52:50.67 |  7:30.00 |    237817    |   271566
        9  | 60:20.67 |  9:15.11 |    271567    |   313202
       10  | 69:36.03 |  6:41.47 |    313203    |   343324

Track  1

     Filename D:\EAC Rips\Deadmau5 - 5 years of mau5 (2014) [FLAC]\Disc 1\01 - Ghosts 'n' Stuff.wav

     Pre-gap length  0:00:02.00

     Peak level 89.1 %
     Extraction speed 1.2 X
     Track quality 100.0 %
     Test CRC AE834CB2
     Copy CRC AE834CB2
     Track not present in AccurateRip database
     Copy OK

Track  2

     Filename D:\EAC Rips\Deadmau5 - 5 years of mau5 (2014) [FLAC]\Disc 1\02 - Raise Your Weapon.wav

     Peak level 99.3 %
     Extraction speed 1.5 X
     Track quality 100.0 %
     Test CRC C0F49DB3
     Copy CRC C0F49DB3
     Track not present in AccurateRip database
     Copy OK

Track  3

     Filename D:\EAC Rips\Deadmau5 - 5 years of mau5 (2014) [FLAC]\Disc 1\03 - I Remember.wav

     Peak level 99.9 %
     Extraction speed 1.6 X
     Track quality 99.9 %
     Test CRC 605C91AC
     Copy CRC 605C91AC
     Track not present in AccurateRip database
     Copy OK

Track  4

     Filename D:\EAC Rips\Deadmau5 - 5 years of mau5 (2014) [FLAC]\Disc 1\04 - Some Chords.wav

     Peak level 100.0 %
     Extraction speed 1.9 X
     Track quality 100.0 %
     Test CRC 797025CE
     Copy CRC 797025CE
     Track not present in AccurateRip database
     Copy OK

Track  5

     Filename D:\EAC Rips\Deadmau5 - 5 years of mau5 (2014) [FLAC]\Disc 1\05 - Strobe.wav

     Peak level 98.0 %
     Extraction speed 1.8 X
     Track quality 99.9 %
     Test CRC A3D0B93E
     Copy CRC A3D0B93E
     Track not present in AccurateRip database
     Copy OK

Track  6

     Filename D:\EAC Rips\Deadmau5 - 5 years of mau5 (2014) [FLAC]\Disc 1\06 - The Veldt.wav

     Peak level 99.9 %
     Extraction speed 2.2 X
     Track quality 100.0 %
     Test CRC 1381DE94
     Copy CRC 1381DE94
     Track not present in AccurateRip database
     Copy OK

Track  7

     Filename D:\EAC Rips\Deadmau5 - 5 years of mau5 (2014) [FLAC]\Disc 1\07 - Brazil (2nd Edit).wav

     Peak level 99.9 %
     Extraction speed 2.1 X
     Track quality 99.9 %
     Test CRC EF56608B
     Copy CRC EF56608B
     Track not present in AccurateRip database
     Copy OK

Track  8

     Filename D:\EAC Rips\Deadmau5 - 5 years of mau5 (2014) [FLAC]\Disc 1\08 - Aural Psynapse.wav

     Pre-gap length  0:00:02.00

     Peak level 99.9 %
     Extraction speed 2.4 X
     Track quality 100.0 %
     Test CRC AA05382C
     Copy CRC AA05382C
     Track not present in AccurateRip database
     Copy OK

Track  9

     Filename D:\EAC Rips\Deadmau5 - 5 years of mau5 (2014) [FLAC]\Disc 1\09 - Not Exactly.wav

     Peak level 98.8 %
     Extraction speed 2.6 X
     Track quality 100.0 %
     Test CRC 385FAACC
     Copy CRC 385FAACC
     Track not present in AccurateRip database
     Copy OK

Track 10

     Filename D:\EAC Rips\Deadmau5 - 5 years of mau5 (2014) [FLAC]\Disc 1\10 - Sofi Needs A Ladder.wav

     Peak level 98.0 %
     Extraction speed 2.6 X
     Track quality 100.0 %
     Test CRC 852FDD51
     Copy CRC 852FDD51
     Track not present in AccurateRip database
     Copy OK

None of the tracks are present in the AccurateRip database

No errors occurred

End of status report

---- CUETools DB Plugin V2.1.3

[CTDB TOCID: 5EfNST7OOl24olRUaFK5CYpgiJQ-] disk not present in database, Submit result: 5EfNST7OOl24olRUaFK5CYpgiJQ- has been uploaded

==== Log checksum 96E629157E07769032D0A2E2ED8A190E189507E4D1C2A32E175E13A61B87E1B1 ====

Код:
Код: Выделить всё
-----------------------

DON'T MODIFY THIS FILE

-----------------------

PERFORMER: auCDtect Task Manager, ver. 1.6.0 RC1 build 1.6.0.1
Copyright (c) 2008-2010 y-soft. All rights reserved
http:/y-soft.org

ANALYZER: auCDtect: CD records authenticity detector, version 0.8.2
Copyright (c) 2004 Oleg Berngardt. All rights reserved.
Copyright (c) 2004 Alexander Djourik. All rights reserved.

FILE: 10 - Sofi Needs A Ladder.flac
  Size: 51265943 Hash: 2BA5243920C149AF8F3EBDE4FD202C70 Accuracy: -m0
  Conclusion: CDDA 100%
  Signature: F9DB9D0E002F629CDB8CFE6C37184E4D66B4BC38
FILE: 09 - Not Exactly.flac
  Size: 62985671 Hash: A4F82113C4A518BFBFB42A9E163B185C Accuracy: -m0
  Conclusion: CDDA 99%
  Signature: BCCA6B8F3E54B41F2A67B0BD201F299D9ECC1F06
FILE: 08 - Aural Psynapse.flac
  Size: 49008998 Hash: 3AD186EF6B7DA62DDEC32D716120BEA5 Accuracy: -m0
  Conclusion: CDDA 100%
  Signature: E546ED10F91964CB63ECC63A6D5099B3F01BC5C4
FILE: 07 - Brazil (2nd Edit).flac
  Size: 44199844 Hash: 694DF0F22CFF11F890D6FA6A46E85A0A Accuracy: -m0
  Conclusion: CDDA 100%
  Signature: DFE86CA9C7AC980B2660038D7A7550C91F22BC8D
FILE: 06 - The Veldt.flac
  Size: 59285889 Hash: 345BA53BAF0E8A5BA8BDED530FE0E0DB Accuracy: -m0
  Conclusion: CDDA 100%
  Signature: EAD5490FED84C8FB37B28844856E592D2CB3D871
FILE: 05 - Strobe.flac
  Size: 42804743 Hash: 0C207D636E86332643643B5FDAE61A69 Accuracy: -m0
  Conclusion: CDDA 100%
  Signature: D3196CAAD9FFD58978964A4656F467DBA656DBF4
FILE: 04 - Some Chords.flac
  Size: 53548622 Hash: 6FE51843C79BE91DE5A12BD8B543B53E Accuracy: -m0
  Conclusion: CDDA 100%
  Signature: 56F80E2B451AB3EE81337560D5DCF572A7C2B7F0
FILE: 03 - I Remember.flac
  Size: 66574875 Hash: 57E6122609328A32A2C5D3EAF2BDEE7E Accuracy: -m0
  Conclusion: CDDA 100%
  Signature: C998497748134B2F7D8201DD3F26588BA3346359
FILE: 02 - Raise Your Weapon.flac
  Size: 55400601 Hash: 34FB5088AD36C5B6CA46E56D28A6F8DF Accuracy: -m0
  Conclusion: CDDA 100%
  Signature: AE129AD0E5328E32564166F1D97803B362176689
FILE: 01 - Ghosts 'n' Stuff.flac
  Size: 41344972 Hash: 36AEBFE3DA9F91835213459E17787030 Accuracy: -m0
  Conclusion: CDDA 100%
  Signature: BFB96032B5CF18F0F8EC2255B6963737B41042AC


Трек лист:

01. Some Chords (Dillon Francis Remix) (4:53)
02. Ghosts 'n' Stuff (Chuckie Remix) (6:03)
03. The Veldt (deadmau5 vs Eric Prydz Edit) (6:27)
04. Maths (Botnek Remix) (4:23)
05. Raise Your Weapon (Madeon Remix) (4:17)
06. Strobe (Michael Woods 2014 Remix) (7:11)
07. I Remember (Shiba San Remix) (5:35)
08. Raise Your Weapon (Wax Motif Remix) (4:33)
09. Sofi Needs A Ladder (Pig&Dan Remix) (7:40)
10. Ghosts 'n' Stuff (NERO Remix) (6:55)

Продолжительность: 00:57:57
Код:
Код: Выделить всё
Exact Audio Copy V1.0 beta 3 from 29. August 2011

EAC extraction logfile from 21. November 2014, 23:51

Deadmau5 / 5 years of mau5

Used drive  : HL-DT-STBD-RE  WH16NS40   Adapter: 2  ID: 0

Read mode               : Secure
Utilize accurate stream : Yes
Defeat audio cache      : Yes
Make use of C2 pointers : No

Read offset correction                      : 6
Overread into Lead-In and Lead-Out          : No
Fill up missing offset samples with silence : Yes
Delete leading and trailing silent blocks   : No
Null samples used in CRC calculations       : Yes
Used interface                              : Native Win32 interface for Win NT & 2000
Gap handling                                : Appended to previous track

Used output format              : User Defined Encoder
Selected bitrate                : 1024 kBit/s
Quality                         : High
Add ID3 tag                     : No
Command line compressor         : C:\Program Files (x86)\Exact Audio Copy\Flac\flac.exe
Additional command line options : -8 -V -T "ARTIST=%artist%" -T "TITLE=%title%" -T "ALBUM=%albumtitle%" -T "DATE=%year%" -T "TRACKNUMBER=%tracknr%" -T "GENRE=%genre%" -T "PERFORMER=%albuminterpret%" -T "COMPOSER=%composer%" %haslyrics%--tag-from-file=LYRICS="%lyricsfile%"%haslyrics% -T "ALBUMARTIST=%albumartist%" -T "DISCNUMBER=%cdnumber%" -T "TOTALDISCS=%totalcds%" -T "TOTALTRACKS=%numtracks%" -T "COMMENT=%comment%" %source% -o %dest%

TOC of the extracted CD

     Track |   Start  |  Length  | Start sector | End sector
    ---------------------------------------------------------
        1  |  0:00.00 |  4:53.13 |         0    |    21987
        2  |  4:53.13 |  6:03.06 |     21988    |    49218
        3  | 10:56.19 |  6:27.44 |     49219    |    78287
        4  | 17:23.63 |  4:23.31 |     78288    |    98043
        5  | 21:47.19 |  4:17.17 |     98044    |   117335
        6  | 26:04.36 |  7:11.71 |    117336    |   149731
        7  | 33:16.32 |  5:35.52 |    149732    |   174908
        8  | 38:52.09 |  4:33.03 |    174909    |   195386
        9  | 43:25.12 |  7:40.15 |    195387    |   229901
       10  | 51:05.27 |  6:55.43 |    229902    |   261069

Track  1

     Filename D:\EAC Rips\Deadmau5 - 5 years of mau5 (2014) [FLAC]\Disc 2\01 - Some Chords (Dillon Francis Remix).wav

     Pre-gap length  0:00:02.00

     Peak level 96.5 %
     Extraction speed 1.2 X
     Track quality 100.0 %
     Test CRC 6A79986D
     Copy CRC 6A79986D
     Track not present in AccurateRip database
     Copy OK

Track  2

     Filename D:\EAC Rips\Deadmau5 - 5 years of mau5 (2014) [FLAC]\Disc 2\02 - Ghosts 'n' Stuff (Chuckie Remix).wav

     Pre-gap length  0:00:00.66

     Peak level 97.0 %
     Extraction speed 1.4 X
     Track quality 100.0 %
     Test CRC 171DA576
     Copy CRC 171DA576
     Track not present in AccurateRip database
     Copy OK

Track  3

     Filename D:\EAC Rips\Deadmau5 - 5 years of mau5 (2014) [FLAC]\Disc 2\03 - The Veldt (deadmau5 vs Eric Prydz Edit).wav

     Peak level 100.0 %
     Extraction speed 1.6 X
     Track quality 100.0 %
     Test CRC 21227296
     Copy CRC 21227296
     Track not present in AccurateRip database
     Copy OK

Track  4

     Filename D:\EAC Rips\Deadmau5 - 5 years of mau5 (2014) [FLAC]\Disc 2\04 - Maths (Botnek Remix).wav

     Peak level 100.0 %
     Extraction speed 1.6 X
     Track quality 100.0 %
     Test CRC 98CF7094
     Copy CRC 98CF7094
     Track not present in AccurateRip database
     Copy OK

Track  5

     Filename D:\EAC Rips\Deadmau5 - 5 years of mau5 (2014) [FLAC]\Disc 2\05 - Raise Your Weapon (Madeon Remix).wav

     Pre-gap length  0:00:00.18

     Peak level 63.1 %
     Extraction speed 1.7 X
     Track quality 100.0 %
     Test CRC 7B5AF1F7
     Copy CRC 7B5AF1F7
     Track not present in AccurateRip database
     Copy OK

Track  6

     Filename D:\EAC Rips\Deadmau5 - 5 years of mau5 (2014) [FLAC]\Disc 2\06 - Strobe (Michael Woods 2014 Remix).wav

     Pre-gap length  0:00:02.00

     Peak level 97.0 %
     Extraction speed 1.8 X
     Track quality 99.9 %
     Test CRC 58AD16A0
     Copy CRC 58AD16A0
     Track not present in AccurateRip database
     Copy OK

Track  7

     Filename D:\EAC Rips\Deadmau5 - 5 years of mau5 (2014) [FLAC]\Disc 2\07 - I Remember (Shiba San Remix).wav

     Peak level 98.4 %
     Extraction speed 2.0 X
     Track quality 100.0 %
     Test CRC D096109A
     Copy CRC D096109A
     Track not present in AccurateRip database
     Copy OK

Track  8

     Filename D:\EAC Rips\Deadmau5 - 5 years of mau5 (2014) [FLAC]\Disc 2\08 - Raise Your Weapon (Wax Motif Remix).wav

     Peak level 98.4 %
     Extraction speed 2.0 X
     Track quality 100.0 %
     Test CRC BE6215A6
     Copy CRC BE6215A6
     Track not present in AccurateRip database
     Copy OK

Track  9

     Filename D:\EAC Rips\Deadmau5 - 5 years of mau5 (2014) [FLAC]\Disc 2\09 - Sofi Needs A Ladder (Pig&Dan Remix).wav

     Peak level 98.4 %
     Extraction speed 2.3 X
     Track quality 100.0 %
     Test CRC 1AEDE59C
     Copy CRC 1AEDE59C
     Track not present in AccurateRip database
     Copy OK

Track 10

     Filename D:\EAC Rips\Deadmau5 - 5 years of mau5 (2014) [FLAC]\Disc 2\10 - Ghosts 'n' Stuff (NERO Remix).wav

     Peak level 100.0 %
     Extraction speed 2.4 X
     Track quality 100.0 %
     Test CRC 9656372A
     Copy CRC 9656372A
     Track not present in AccurateRip database
     Copy OK

None of the tracks are present in the AccurateRip database

No errors occurred

End of status report

---- CUETools DB Plugin V2.1.3

[CTDB TOCID: _YeZwUjhuq0nuckb5rS09.uxzQg-] disk not present in database, Submit result: _YeZwUjhuq0nuckb5rS09.uxzQg- has been uploaded

==== Log checksum 35471052714E9FDB537044BEB29EE449F4ED5F3E40E2AA569DB4B6964E76A6B6 ====

Код:
Код: Выделить всё
-----------------------

DON'T MODIFY THIS FILE

-----------------------

PERFORMER: auCDtect Task Manager, ver. 1.6.0 RC1 build 1.6.0.1
Copyright (c) 2008-2010 y-soft. All rights reserved
http:/y-soft.org

ANALYZER: auCDtect: CD records authenticity detector, version 0.8.2
Copyright (c) 2004 Oleg Berngardt. All rights reserved.
Copyright (c) 2004 Alexander Djourik. All rights reserved.

FILE: 10 - Ghosts 'n' Stuff (NERO Remix).flac
  Size: 51964775 Hash: 6330B5F9C78CE4099629EC11D4588B99 Accuracy: -m0
  Conclusion: CDDA 100%
  Signature: 62A006D5A4EAE10C1AE3D432EC9FA928F7198FDC
FILE: 09 - Sofi Needs A Ladder (Pig&Dan Remix).flac
  Size: 55656240 Hash: C0FC63FD2079E514CE5E48367D10FF7E Accuracy: -m0
  Conclusion: CDDA 100%
  Signature: 6A261C1D98B8E059AC985B0EDC53D373965C85DF
FILE: 08 - Raise Your Weapon (Wax Motif Remix).flac
  Size: 34105713 Hash: 7A63392D1342739004630956715BAE39 Accuracy: -m0
  Conclusion: CDDA 100%
  Signature: 9CBDE9AA0350CC1146FF309F82A0D88EDA9CA978
FILE: 07 - I Remember (Shiba San Remix).flac
  Size: 38435834 Hash: 4710EB698A9F53D318EC80745B90EF2D Accuracy: -m0
  Conclusion: CDDA 100%
  Signature: 90D8E245A3D43385527F6F536C664310B1B5B400
FILE: 06 - Strobe (Michael Woods 2014 Remix).flac
  Size: 57464601 Hash: EF5D4CE1A38EE97AC0A11B3BCE8E0FC6 Accuracy: -m0
  Conclusion: CDDA 100%
  Signature: AA8AE153CA8D8B76922A2A26285EAAB7CF835158
FILE: 05 - Raise Your Weapon (Madeon Remix).flac
  Size: 31011528 Hash: 4F34A64E59AA7BB2A9D7AD158360FBA0 Accuracy: -m0
  Conclusion: CDDA 100%
  Signature: 3FEFF82437EBB7D91E1DCF9CE3F59D0CFF34017E
FILE: 04 - Maths (Botnek Remix).flac
  Size: 37864418 Hash: 808BD5211C59D3A5D921B0DA24B7BBC6 Accuracy: -m0
  Conclusion: CDDA 100%
  Signature: 7B482AB8CDF91677139A281FE82375848387D2E7
FILE: 03 - The Veldt (deadmau5 vs Eric Prydz Edit).flac
  Size: 51702684 Hash: ABB8B9E77FC639DC3049630665E4BDB9 Accuracy: -m0
  Conclusion: CDDA 100%
  Signature: 536C6CA37CB3FEDA64F949D094ED9DCB0DAF131E
FILE: 02 - Ghosts 'n' Stuff (Chuckie Remix).flac
  Size: 49369201 Hash: 6C5A40F92BF788F697279C00BE3C5B52 Accuracy: -m0
  Conclusion: CDDA 100%
  Signature: 409BD17ED61CA766F810DB8EB4089FDEDC3F206B
FILE: 01 - Some Chords (Dillon Francis Remix).flac
  Size: 35574848 Hash: 0BB2B5BF1108534BB28C542A091FC2A4 Accuracy: -m0
  Conclusion: CDDA 100%
  Signature: F08B9B213BBFD8D63CA4F0F50FF358D5A740D405

Время раздачи:
24/7
 
Не забывайте говорить Спасибо. Не уходите с раздачи!   
Торрент: Зарегистрирован [02 дек 2014, 14:34] Скачать торрент
Скачать торрент
[ Размер 20.72 КБ / Просмотров 29 ]
Статус:
Проверен
 
.torrent скачан: 0 раз
Хэш: e389659b69db6d5591e750f656fc43b6768ceb92
Размер: 925.16 МБ (970 104 305 байт)
Стать Автором раздачи
 
 
Раздал: 6.67 ГБ
Скачал: 302.5 МБ
Ратио: 22.576
Сообщения: 374198
Зарегистрирован: 17 апр 2014, 11:05


  • Похожие торренты
    Ответы
    Просмотры
    Последнее сообщение

Вернуться в House, Techno, Electro, Minimal (транзит Lossless)

Ресурс не предоставляет электронные версии произведений, а занимается лишь коллекционированием и каталогизацией ссылок, присылаемых и публикуемых на форуме нашими читателями. Если вы являетесь правообладателем какого-либо представленного материала и не желаете чтобы ссылка на него находилась в нашем каталоге, свяжитесь с нами и мы незамедлительно удалим её. Файлы для обмена на трекере предоставлены пользователями сайта, и администрация не несёт ответственности за их содержание. Просьба не заливать файлы, защищенные авторскими правами, а также файлы нелегального содержания!
cron