(Neo-Post-Gothic, Rock, Acoustic) [Mi] [16/48] Творческий вечер Глеб Самойлов и Константин Бекрев, песни групп The Matrixx и Агата Кристи, Воронеж, клуб "Колизей" - 2014, FLAC (image+.cue)

 
 Статистика раздачи 
Размер: 285.87 МБ   |  Зарегистрирован: 02 дек 2014, 01:30   |   .torrent скачан: 0 раз
Сидеров: 1  [ 0 байт/сек ]     Личеров: 0  [ 0 байт/сек ]  
  

(Neo-Post-Gothic, Rock, Acoustic) [Mi] [16/48] Творческий вечер Глеб Самойлов и Константин Бекрев, песни групп The Matrixx и Агата Кристи, Воронеж, клуб "Колизей" - 2014, FLAC (image+.cue)

Сообщение Seepas » 02 дек 2014, 01:30

Творческий вечер Глеба Самойлова и Константина Бекрева, Воронеж, клуб "Колизей"

Жанр: Neo-Post-Gothic, Rock, Acoustic
Носитель: MB
Год выпуска: 2014
Страна-производитель: РФ
Аудио кодек: FLAC
Тип рипа: image+.cue
Формат записи: 16/48
Формат раздачи: 16/48
Продолжительность: 01:30:19
Звукозаписывающее устройство: TASCAM DR-05
Обработка: Adobe Audition CC 6.0
Источник (релизер): Запись из собственной коллекции

Треклист:
01. Ползет
02. Москва-река
03. На дне
04. Командир
05. Партизаны
06. Лиловыый негр
07. В синем и далеком океане
08. Баллада о короле
09. Джонни
10. Форма
11. Любовью
12. Планета полицаев
13. Живой
14. В открытый рот
15. Водка
16. Порвали мечту
17. Они летят
REM DATE 2014
PERFORMER "Глеб Самойлов и Костя Бекрев"
TITLE "Концерт в Воронеже 2014"
FILE "2014 - Глеб Самойлов и Костя Бекрев - Концерт в Воронеже.flac" WAVE
TRACK 01 AUDIO
TITLE "Глеб Самойлов и Костя Бекрев"
PERFORMER "Ползет"
INDEX 01 00:00:00
TRACK 02 AUDIO
TITLE "Глеб Самойлов и Костя Бекрев"
PERFORMER "Москва-река"
INDEX 01 02:57:12
TRACK 03 AUDIO
TITLE "Глеб Самойлов и Костя Бекрев"
PERFORMER "На дне"
INDEX 01 07:09:03
TRACK 04 AUDIO
TITLE "Глеб Самойлов и Костя Бекрев"
PERFORMER "Командир"
INDEX 01 11:16:65
TRACK 05 AUDIO
TITLE "Глеб Самойлов и Костя Бекрев"
PERFORMER "Партизаны"
INDEX 01 15:37:25
TRACK 06 AUDIO
TITLE "Глеб Самойлов и Костя Бекрев"
PERFORMER "Лиловый негр"
INDEX 01 24:01:04
TRACK 07 AUDIO
TITLE "Глеб Самойлов и Костя Бекрев"
PERFORMER "В синем и далеком океане"
INDEX 01 26:03:45
TRACK 08 AUDIO
TITLE "Глеб Самойлов и Костя Бекрев"
PERFORMER "Баллада о короле"
INDEX 01 29:23:62
TRACK 09 AUDIO
TITLE "Глеб Самойлов и Костя Бекрев"
PERFORMER "Джонни"
INDEX 01 32:52:14
TRACK 10 AUDIO
TITLE "Глеб Самойлов и Костя Бекрев"
PERFORMER "Форма"
INDEX 01 37:37:14
TRACK 11 AUDIO
TITLE "Глеб Самойлов и Костя Бекрев"
PERFORMER "Любовью"
INDEX 01 48:23:17
TRACK 12 AUDIO
TITLE "Глеб Самойлов и Костя Бекрев"
PERFORMER "Планета полицаев"
INDEX 01 51:52:09
TRACK 13 AUDIO
TITLE "Глеб Самойлов и Костя Бекрев"
PERFORMER "Живой"
INDEX 01 60:58:02
TRACK 14 AUDIO
TITLE "Глеб Самойлов и Костя Бекрев"
PERFORMER "В открытый рот"
INDEX 01 63:55:15
TRACK 15 AUDIO
TITLE "Глеб Самойлов и Костя Бекрев"
PERFORMER "Водка"
INDEX 01 77:17:34
TRACK 16 AUDIO
TITLE "Глеб Самойлов и Костя Бекрев"
PERFORMER "Порвали мечту"
INDEX 01 81:35:04
TRACK 17 AUDIO
TITLE "Глеб Самойлов и Костя Бекрев"
PERFORMER "Они летят"
INDEX 01 86:09:57
Доп. информация: Глеб Самойлов & Константин Бекрев с акустической программой песен групп The Matrixx и Агаты Кристи
+ песенный блок по творчеству Александра Вертинского.
 
Не забывайте говорить Спасибо. Не уходите с раздачи!   
Торрент: Зарегистрирован [02 дек 2014, 01:30] Скачать торрент
Скачать торрент
[ Размер 12.04 КБ / Просмотров 13 ]
Статус:
Проверен
 
.torrent скачан: 0 раз
Хэш: fc4c694d2fa0551936b38cb0b13478725e474fc0
Размер: 285.87 МБ (299 753 331 байт)
Стать Автором раздачи
 
 
Раздал: 0 байт
Скачал: 0 байт
Ратио: Inf.
Сообщения: 188877
Зарегистрирован: 14 июн 2014, 20:46


  • Похожие торренты
    Ответы
    Просмотры
    Последнее сообщение

Вернуться в Отечественный рок (собственные оцифровки)

Ресурс не предоставляет электронные версии произведений, а занимается лишь коллекционированием и каталогизацией ссылок, присылаемых и публикуемых на форуме нашими читателями. Если вы являетесь правообладателем какого-либо представленного материала и не желаете чтобы ссылка на него находилась в нашем каталоге, свяжитесь с нами и мы незамедлительно удалим её. Файлы для обмена на трекере предоставлены пользователями сайта, и администрация не несёт ответственности за их содержание. Просьба не заливать файлы, защищенные авторскими правами, а также файлы нелегального содержания!
cron