Константин (Constantine) / (Сезон 1, серии 1-6 из 13) BaibaKo (2014) [MP4|720x400] <WEB-DLRip H.264>

 
 Статистика раздачи 
Размер: 3.44 ГБ   |  Зарегистрирован: 30 ноя 2014, 22:36   |   .torrent скачан: 0 раз
Сидеров: 1  [ 0 байт/сек ]     Личеров: 0  [ 0 байт/сек ]  
  

Константин (Constantine) / (Сезон 1, серии 1-6 из 13) BaibaKo (2014) [MP4|720x400] <WEB-DLRip H.264>

Сообщение Thistoll » 30 ноя 2014, 22:36

Константин (Constantine) / (Сезон 1, серии 1-6 из 13) BaibaKo (2014) WEB-DLRip
«Giving Hell... hell»

Год выпуска: 2014
Жанр: Ужасы, Фэнтези, Боевик
Страна: США

Описание фильма:
Бывалый охотник на демонов и оккультист Джон Константин задаёт жару аду. Вооруженный таинственными знаниями темных искусств и обладая острым умом, он ведет неравную борьбу… ну, или по крайней мере вел. Так как его душа уже все равно проклята и попадет в ад, он решает оставить жизнь борца за добро, но когда демоны нацеливаются на Лив, дочь одного из самых давних друзей Константина, он неохотно возвращается, и сделает все возможное, чтобы спасти её.

Режиссер: Ромео Тироне, Нил Маршалл, Т.Дж. Скотт
Актеры: Мэтт Райан, Люси Гриффитс, Хэролд Перрино, Чарльз Халфорд, Майлз Андерсон, Джереми Дэвис, Джулия Леман, Марк Эшворт, Хиллари Брант, Анхелика Селая, Оскар Гейл, Кит Брукс, Дэвид Грегори и др.

Продолжительность: ~ 00:43:00 серия
Качество видео: WEB-DLRip

Перевод: Многоголосый закадровый, профессиональный - BaibaKo
Автор перевода: Юлия Луцкая и vipere
Озвучка: Светлана Доманова, Anna_Smile, Андрей Корзаченко и Олекса Мельник
Монтаж: Павел Дежин

Сэмпл
Дата мировой премьеры: 24 октября 2014

Формат: MP4
Видеокодек: MPEG-4 AVC/H.264
Битрейт видео: ~1536 Кбит/сек
Размер кадра: 720x400 (16:9)
Аудио #1: AAC, 2 канала, 192 Кбит/сек - (многоголосый закадровый)
Аудио #2: AAC, 2 канала, 192 Кбит/сек - (оригинал)
Полное имя : D:\Constantine_(all.sezon's)_WEBRip_x264_BaibaKo_[NNM-CLUB]\Constantine.s01e01.WEB-DLRip.x264.Rus.Eng.BaibaKo.tv.mp4
Формат : MPEG-4
Профиль формата : Base Media
Идентификатор кодека : isom
Размер файла : 590 Мбайт
Продолжительность : 43 м.
Режим общего битрейта : Переменный
Общий поток : 1920 Кбит/сек
Дата кодирования : UTC 2014-10-25 15:57:52
Дата пометки : UTC 2014-10-25 15:57:52

Видео
Идентификатор : 1
Формат : AVC
Формат/Информация : Advanced Video Codec
Профиль формата :
Параметр CABAC формата : Нет
Параметр ReFrames формата : 3 кадра
Идентификатор кодека : avc1
Идентификатор кодека/Информация : Advanced Video Coding
Продолжительность : 43 м.
Битрейт : 1536 Кбит/сек
Максимальный битрейт : 8075 Кбит/сек
Ширина : 720 пикселей
Высота : 400 пикселей
Соотношение сторон : 16:9
Режим частоты кадров : Переменный
Частота кадров : 23,976 кадра/сек
Минимальная частота кадров : 23,974 кадра/сек
Максимальная частота кадров : 23,981 кадра/сек
Цветовое пространство : YUV
Субдискретизация насыщенности : 4:2:0
Битовая глубина : 8 бит
Тип развёртки : Прогрессивная
Бит/(Пиксели*Кадры) : 0.222
Размер потока : 472 Мбайт (80%)
Библиотека кодирования : x264 core 130 r2273 b3065e6
Настройки программы : cabac=0 / ref=3 / deblock=1:0:0 / analyse=0x1:0x111 / me=hex / subme=7 / psy=1 / psy_rd=1.00:0.00 / mixed_ref=1 / me_range=16 / chroma_me=1 / trellis=1 / 8x8dct=0 / cqm=0 / deadzone=21,11 / fast_pskip=1 / chroma_qp_offset=-2 / threads=12 / lookahead_threads=2 / sliced_threads=0 / nr=0 / decimate=1 / interlaced=0 / bluray_compat=0 / constrained_intra=0 / bframes=0 / weightp=0 / keyint=240 / keyint_min=24 / scenecut=40 / intra_refresh=0 / rc_lookahead=40 / rc=2pass / mbtree=1 / bitrate=1536 / ratetol=1.0 / qcomp=0.60 / qpmin=0 / qpmax=69 / qpstep=4 / cplxblur=20.0 / qblur=0.5 / ip_ratio=1.40 / aq=1:1.00
Дата кодирования : UTC 2014-10-25 07:45:28
Дата пометки : UTC 2014-10-25 15:58:07
Основные цвета : BT.709
Характеристики трансфера : BT.709
Коэффициенты матрицы : BT.709

Аудио #1
Идентификатор : 2
Формат : AAC
Формат/Информация : Advanced Audio Codec
Профиль формата : LC
Идентификатор кодека : 67
Продолжительность : 43 м.
Вид битрейта : Переменный
Битрейт : 192 Кбит/сек
Максимальный битрейт : 197 Кбит/сек
Каналы : 2 канала
Расположение каналов : Front: L R
Частота : 48,0 КГц
Метод сжатия : С потерями
Размер потока : 58,3 Мбайт (10%)
Язык : Russian
Дата кодирования : UTC 2014-10-25 15:57:59
Дата пометки : UTC 2014-10-25 15:58:07

Аудио #2
Идентификатор : 3
Формат : AAC
Формат/Информация : Advanced Audio Codec
Профиль формата : LC
Идентификатор кодека : 67
Продолжительность : 43 м.
Вид битрейта : Переменный
Битрейт : 192 Кбит/сек
Максимальный битрейт : 196 Кбит/сек
Каналы : 2 канала
Расположение каналов : Front: L R
Частота : 48,0 КГц
Метод сжатия : С потерями
Размер потока : 58,3 Мбайт (10%)
Язык : English
Дата кодирования : UTC 2014-10-25 15:58:02
Дата пометки : UTC 2014-10-25 15:58:07
01 - Нет - прибежищу! / Non Est Asylum (пилотная серия была переснята)
02 - Подземная тьма / The Darkness Beneath
03 - Дьявольский винил / The Devil's Vinyl
04 - Пиршество друзей / A Feast of Friends
05 - Танец Вуду / Danse Vaudou
06 - Ярость Калибана / Rage of Caliban
Внимание! Раздача ведётся путём добавления новых серий; при каждом добавлении создаётся новый торрент.
Чтобы начать докачку новой серии, пользователям необходимо сделать следующее:
1. Остановить скачивание;
2. Удалить старый торрент у себя из клиента (старые серии удалять не надо);
3. Скачать новый торрент и запустить его у себя в клиенте вместо старого, при этом указать клиенту путь в старую папку куда и должно происходить скачивание новых серий. Ваш клиент при этом должен произвести хеширование (проверку) старой папки и будет докачивать только те серии, которых у вас ещё нет. Старые серии при этом не удаляются, а продолжают раздаваться! Eсли вы уже удалили старые серии, то предотвратить повторную закачку старых серий можно, отжав галочку в соответствующих местах при запуске нового торрента.
Скриншоты:



Время раздачи:
24/7 - круглосуточно
(до первых 5-ти сидов - потом по возможности)
 
Не забывайте говорить Спасибо. Не уходите с раздачи!   
Торрент: Зарегистрирован [30 ноя 2014, 22:36] Для скачивания .torrent
необходима регистрация
Или скачать с помощью
MediaGet
Статус:
Проверен
 
.torrent скачан: 0 раз
Хэш: 24356861bd75324e9eb51ec631f7dbc7358db0ec
Размер: 3.44 ГБ (3 695 276 582 байт)
Стать Автором раздачи
 
 
Раздал: 6.67 ГБ
Скачал: 302.5 МБ
Ратио: 22.576
Сообщения: 374198
Зарегистрирован: 17 апр 2014, 11:05


  • Похожие торренты
    Ответы
    Просмотры
    Последнее сообщение

Вернуться в Видео для мобильных устройств

Ресурс не предоставляет электронные версии произведений, а занимается лишь коллекционированием и каталогизацией ссылок, присылаемых и публикуемых на форуме нашими читателями. Если вы являетесь правообладателем какого-либо представленного материала и не желаете чтобы ссылка на него находилась в нашем каталоге, свяжитесь с нами и мы незамедлительно удалим её. Файлы для обмена на трекере предоставлены пользователями сайта, и администрация не несёт ответственности за их содержание. Просьба не заливать файлы, защищенные авторскими правами, а также файлы нелегального содержания!
cron