J.Axel - Like A Shadow (2014) [FLAC|Lossless] <Tech House, Deep House>

 
 Статистика раздачи 
Размер: 263.7 МБ   |  Зарегистрирован: 29 ноя 2014, 10:13   |   .torrent скачан: 0 раз
Сидеров: 1  [ 0 байт/сек ]     Личеров: 0  [ 0 байт/сек ]  
  

J.Axel - Like A Shadow (2014) [FLAC|Lossless] <Tech House, Deep House>

Сообщение Thistoll » 29 ноя 2014, 10:13

J.Axel - Like A Shadow (2014)


Год: 2014
Жанр: Tech House, Deep House
Лейбл: Plastic City
Каталог#: PLAC095-2
Продолжительность: 00:52:39

Кодек: FLAC
Битрейт: Lossless
Тип рипа: tracks+.cue+log

Треклист:
01. Sacrifice (04:42)
02. Blindet (05:48)
03. Like A Shadow (06:22)
04. The Journey (05:38)
05. My Soul Belongs To The Sea (02:40)
06. Recreation (06:10)
07. Proper Meditation (07:42)
08. Full Moon (05:10)
09. Feelings Catching Up (04:27)
10. Noel (04:00)


Код:
Код: Выделить всё
Exact Audio Copy V1.0 beta 3 from 29. August 2011

EAC extraction logfile from 23. July 2014, 20:26

J.Axel / Like A Shadow

Used drive  : PLEXTOR DVDR   PX-755A   Adapter: 5  ID: 0

Read mode               : Secure
Utilize accurate stream : Yes
Defeat audio cache      : Yes
Make use of C2 pointers : No

Read offset correction                      : 30
Overread into Lead-In and Lead-Out          : Yes
Fill up missing offset samples with silence : Yes
Delete leading and trailing silent blocks   : No
Null samples used in CRC calculations       : Yes
Used interface                              : Native Win32 interface for Win NT & 2000
Gap handling                                : Appended to previous track

Used output format              : User Defined Encoder
Selected bitrate                : 896 kBit/s
Quality                         : High
Add ID3 tag                     : No
Command line compressor         : C:\Program Files (x86)\Exact Audio Copy\Flac\flac.exe
Additional command line options : -8 -V -T "ARTIST=%artist%" -T "TITLE=%title%" -T "ALBUM=%albumtitle%" -T "DATE=%year%" -T "TRACKNUMBER=%tracknr%" -T "GENRE=%genre%" -T "PERFORMER=%albuminterpret%" -T "COMPOSER=%composer%" %haslyrics%--tag-from-file=LYRICS="%lyricsfile%"%haslyrics% -T "ALBUMARTIST=%albumartist%" -T "DISCNUMBER=%cdnumber%" -T "TOTALDISCS=%totalcds%" -T "TOTALTRACKS=%numtracks%" -T "COMMENT=%comment%" %source% -o %dest%

TOC of the extracted CD

     Track |   Start  |  Length  | Start sector | End sector
    ---------------------------------------------------------
        1  |  0:00.00 |  4:42.16 |         0    |    21165
        2  |  4:42.16 |  5:47.63 |     21166    |    47253
        3  | 10:30.04 |  6:22.01 |     47254    |    75904
        4  | 16:52.05 |  5:38.08 |     75905    |   101262
        5  | 22:30.13 |  2:40.37 |    101263    |   113299
        6  | 25:10.50 |  6:10.00 |    113300    |   141049
        7  | 31:20.50 |  7:42.02 |    141050    |   175701
        8  | 39:02.52 |  5:09.57 |    175702    |   198933
        9  | 44:12.34 |  4:27.02 |    198934    |   218960
       10  | 48:39.36 |  4:00.07 |    218961    |   236967

Track  1

     Filename L:\MUSIC\J.Axel - Like A Shadow (2014) [CDr-FLAC]\1-01. J.Axel - Sacrifice.wav

     Pre-gap length  0:00:02.00

     Peak level 100.0 %
     Extraction speed 4.5 X
     Track quality 99.9 %
     Test CRC 62936618
     Copy CRC 62936618
     Track not present in AccurateRip database
     Copy OK

Track  2

     Filename L:\MUSIC\J.Axel - Like A Shadow (2014) [CDr-FLAC]\1-02. J.Axel - Blindet.wav

     Pre-gap length  0:00:02.00

     Peak level 100.0 %
     Extraction speed 6.1 X
     Track quality 100.0 %
     Test CRC A429C568
     Copy CRC A429C568
     Track not present in AccurateRip database
     Copy OK

Track  3

     Filename L:\MUSIC\J.Axel - Like A Shadow (2014) [CDr-FLAC]\1-03. J.Axel - Like A Shadow.wav

     Pre-gap length  0:00:02.00

     Peak level 100.0 %
     Extraction speed 6.9 X
     Track quality 100.0 %
     Test CRC 36C9293E
     Copy CRC 36C9293E
     Track not present in AccurateRip database
     Copy OK

Track  4

     Filename L:\MUSIC\J.Axel - Like A Shadow (2014) [CDr-FLAC]\1-04. J.Axel - The Journey.wav

     Pre-gap length  0:00:02.00

     Peak level 100.0 %
     Extraction speed 7.4 X
     Track quality 100.0 %
     Test CRC 39F0F4A9
     Copy CRC 39F0F4A9
     Track not present in AccurateRip database
     Copy OK

Track  5

     Filename L:\MUSIC\J.Axel - Like A Shadow (2014) [CDr-FLAC]\1-05. J.Axel - My Soul Belongs To The Sea.wav

     Pre-gap length  0:00:02.00

     Peak level 96.9 %
     Extraction speed 6.9 X
     Track quality 100.0 %
     Test CRC 3CBDD323
     Copy CRC 3CBDD323
     Track not present in AccurateRip database
     Copy OK

Track  6

     Filename L:\MUSIC\J.Axel - Like A Shadow (2014) [CDr-FLAC]\1-06. J.Axel - Recreation.wav

     Pre-gap length  0:00:02.00

     Peak level 100.0 %
     Extraction speed 8.2 X
     Track quality 100.0 %
     Test CRC C891A9C1
     Copy CRC C891A9C1
     Track not present in AccurateRip database
     Copy OK

Track  7

     Filename L:\MUSIC\J.Axel - Like A Shadow (2014) [CDr-FLAC]\1-07. J.Axel - Proper Meditation.wav

     Pre-gap length  0:00:02.00

     Peak level 100.0 %
     Extraction speed 8.9 X
     Track quality 100.0 %
     Test CRC 12167A37
     Copy CRC 12167A37
     Track not present in AccurateRip database
     Copy OK

Track  8

     Filename L:\MUSIC\J.Axel - Like A Shadow (2014) [CDr-FLAC]\1-08. J.Axel - Full Moon.wav

     Pre-gap length  0:00:02.00

     Peak level 100.0 %
     Extraction speed 7.1 X
     Track quality 99.9 %
     Test CRC C865767B
     Copy CRC C865767B
     Track not present in AccurateRip database
     Copy OK

Track  9

     Filename L:\MUSIC\J.Axel - Like A Shadow (2014) [CDr-FLAC]\1-09. J.Axel - Feelings Catching Up.wav

     Pre-gap length  0:00:02.00

     Peak level 97.0 %
     Extraction speed 9.2 X
     Track quality 100.0 %
     Test CRC 6BFEE342
     Copy CRC 6BFEE342
     Track not present in AccurateRip database
     Copy OK

Track 10

     Filename L:\MUSIC\J.Axel - Like A Shadow (2014) [CDr-FLAC]\1-10. J.Axel - Noel.wav

     Pre-gap length  0:00:02.00

     Peak level 100.0 %
     Extraction speed 9.3 X
     Track quality 100.0 %
     Test CRC DF340D1C
     Copy CRC DF340D1C
     Track not present in AccurateRip database
     Copy OK

None of the tracks are present in the AccurateRip database

No errors occurred

End of status report

---- CUETools DB Plugin V2.1.3

[CTDB TOCID: ik90d2Omh_6cDdTGI2mImhA5.mQ-] disk not present in database, Submit result: ik90d2Omh_6cDdTGI2mImhA5.mQ- has been uploaded

==== Log checksum 53D8172CA952B4AC1B17A0E4F3236F94ED62680BAB3B0136120D36B167DD81E1 ====

Код:
Код: Выделить всё
-----------------------

DON'T MODIFY THIS FILE

-----------------------

PERFORMER: auCDtect Task Manager, ver. 1.6.0 RC1 build 1.6.0.1
Copyright (c) 2008-2010 y-soft. All rights reserved
http:/y-soft.org

ANALYZER: auCDtect: CD records authenticity detector, version 0.8.2
Copyright (c) 2004 Oleg Berngardt. All rights reserved.
Copyright (c) 2004 Alexander Djourik. All rights reserved.

FILE: 10 - Noel.flac
  Size: 15003500 Hash: 9E8ED773148A3ABB86F6B2DE8FF4029C Accuracy: -m0
  Conclusion: CDDA 99%
  Signature: 5BF35286396E5E8884D2296BB3007D9970FE9757
FILE: 09 - Feelings Catching Up.flac
  Size: 23515655 Hash: 4CF78BB105ECDAEEFA5AF28CF2A09D17 Accuracy: -m0
  Conclusion: CDDA 100%
  Signature: 8296F207D6F9E7B56A61FE8596781ABD56F8AB37
FILE: 08 - Full Moon.flac
  Size: 29848441 Hash: BE9D8EBC3624F725F8D4094B92BFFDCE Accuracy: -m0
  Conclusion: CDDA 100%
  Signature: 27520A55B8041146C558B4AA02B2DFFC7EC19A29
FILE: 07 - Proper Meditation.flac
  Size: 20741670 Hash: 3FF89287675F2F45E1B1455B3A602072 Accuracy: -m0
  Conclusion: CDDA 100%
  Signature: 7980F7153875108596972AF26A0D246ABF2F0B1D
FILE: 06 - Recreation.flac
  Size: 34866790 Hash: BF090E5B19528CA07CCE628A1A9E25F1 Accuracy: -m0
  Conclusion: CDDA 100%
  Signature: 72E62A9D5436DDD5A8F3607BD2D745E76CCE8508
FILE: 05 - My Soul Belongs To The Sea.flac
  Size: 14705551 Hash: 05BBEA441E5F59EC591013A5A5AF10B9 Accuracy: -m0
  Conclusion: CDDA 100%
  Signature: 7FF73CE7EFD75C869DB2DACC848006DE870EFB4B
FILE: 04 - The Journey.flac
  Size: 31707258 Hash: A86A99BF7A748E6652F0DFB492A88159 Accuracy: -m0
  Conclusion: CDDA 100%
  Signature: B977A2C4DE350EE577164C94299B889E266D4B4E
FILE: 03 - Like A Shadow.flac
  Size: 36334189 Hash: 89F14890B1C15960F631106465ECC2DA Accuracy: -m0
  Conclusion: CDDA 99%
  Signature: 3C051AB4D1042A13884FED968FEAED2FA3389F41
FILE: 02 - Blindet.flac
  Size: 38852623 Hash: B2DEC8DA0AFA60ADADBF16375E3DF43A Accuracy: -m0
  Conclusion: CDDA 100%
  Signature: 835F84F61201F06C6D22DCED7DE47C695966DDF2
FILE: 01 - Sacrifice.flac
  Size: 30500214 Hash: FAF9051609C1B9821889C78F4EA17145 Accuracy: -m0
  Conclusion: CDDA 100%
  Signature: 5448FC983D735D260CE717048719012A06C56AE0

Код:
Код: Выделить всё
REM GENRE "Tech House"
REM DATE 2014
REM DISCID 740C570A
REM COMMENT "ExactAudioCopy v1.0b3"
PERFORMER "J.Axel"
TITLE "Like A Shadow"
FILE "01 - Sacrifice.flac" WAVE
  TRACK 01 AUDIO
    TITLE "Sacrifice"
    PERFORMER "J.Axel"
    ISRC 000000000000
    INDEX 01 00:00:00
  TRACK 02 AUDIO
    TITLE "Blindet"
    PERFORMER "J.Axel"
    ISRC 000000000000
    INDEX 00 04:40:16
FILE "02 - Blindet.flac" WAVE
    INDEX 01 00:00:00
  TRACK 03 AUDIO
    TITLE "Like A Shadow"
    PERFORMER "J.Axel"
    ISRC 000000000000
    INDEX 00 05:45:63
FILE "03 - Like A Shadow.flac" WAVE
    INDEX 01 00:00:00
  TRACK 04 AUDIO
    TITLE "The Journey"
    PERFORMER "J.Axel"
    ISRC 000000000000
    INDEX 00 06:20:01
FILE "04 - The Journey.flac" WAVE
    INDEX 01 00:00:00
  TRACK 05 AUDIO
    TITLE "My Soul Belongs To The Sea"
    PERFORMER "J.Axel"
    ISRC 000000000000
    INDEX 00 05:36:08
FILE "05 - My Soul Belongs To The Sea.flac" WAVE
    INDEX 01 00:00:00
  TRACK 06 AUDIO
    TITLE "Recreation"
    PERFORMER "J.Axel"
    ISRC 000000000000
    INDEX 00 02:38:37
FILE "06 - Recreation.flac" WAVE
    INDEX 01 00:00:00
  TRACK 07 AUDIO
    TITLE "Proper Meditation"
    PERFORMER "J.Axel"
    ISRC 000000000000
    INDEX 00 06:08:00
FILE "07 - Proper Meditation.flac" WAVE
    INDEX 01 00:00:00
  TRACK 08 AUDIO
    TITLE "Full Moon"
    PERFORMER "J.Axel"
    ISRC 000000000000
    INDEX 00 07:40:02
FILE "08 - Full Moon.flac" WAVE
    INDEX 01 00:00:00
  TRACK 09 AUDIO
    TITLE "Feelings Catching Up"
    PERFORMER "J.Axel"
    ISRC 000000000000
    INDEX 00 05:07:57
FILE "09 - Feelings Catching Up.flac" WAVE
    INDEX 01 00:00:00
  TRACK 10 AUDIO
    TITLE "Noel"
    PERFORMER "J.Axel"
    ISRC 000000000000
    INDEX 00 04:25:02
FILE "10 - Noel.flac" WAVE
    INDEX 01 00:00:00




Время раздачи: До 5 сидов
 
Не забывайте говорить Спасибо. Не уходите с раздачи!   
Торрент: Зарегистрирован [29 ноя 2014, 10:13] Скачать торрент
Скачать торрент
[ Размер 11.74 КБ / Просмотров 20 ]
Статус:
Проверен
 
.torrent скачан: 0 раз
Хэш: 02efc3615a82f87eaee8d37a26d3640ed5b5e67d
Размер: 263.7 МБ (276 511 705 байт)
Стать Автором раздачи
 
 
Раздал: 6.67 ГБ
Скачал: 302.5 МБ
Ратио: 22.576
Сообщения: 374198
Зарегистрирован: 17 апр 2014, 11:05


  • Похожие торренты
    Ответы
    Просмотры
    Последнее сообщение

Вернуться в House, Techno, Electro, Minimal (транзит Lossless)

Ресурс не предоставляет электронные версии произведений, а занимается лишь коллекционированием и каталогизацией ссылок, присылаемых и публикуемых на форуме нашими читателями. Если вы являетесь правообладателем какого-либо представленного материала и не желаете чтобы ссылка на него находилась в нашем каталоге, свяжитесь с нами и мы незамедлительно удалим её. Файлы для обмена на трекере предоставлены пользователями сайта, и администрация не несёт ответственности за их содержание. Просьба не заливать файлы, защищенные авторскими правами, а также файлы нелегального содержания!
cron