Руки Вверх - Что Же Ты Наделала (2014) HDTVRip [1080p]

 
 Статистика раздачи 
Размер: 243.13 МБ   |  Зарегистрирован: 27 ноя 2014, 21:58   |   .torrent скачан: 0 раз
Сидеров: 1  [ 0 байт/сек ]     Личеров: 0  [ 0 байт/сек ]  
  

Руки Вверх - Что Же Ты Наделала (2014) HDTVRip [1080p]

Сообщение Thistoll » 27 ноя 2014, 21:58

Руки Вверх - Что Же Ты Наделала (2014) HDTVRip [1080p]

Исполнитель: Руки Вверх
Год выпуска: 2014
Жанр: Pop
Продолжительность: 00:04:03

Описание: Группа "Руки вверх" во главе с бессменным лидером Сергеем Жуковым презентовала клип на новую песню "Что же ты наделала". Сергей отметил, что новы трек - это классика их коллектива.

Качество видео: HDTVRip [1080p]
Видеокодек: MPEG-4 AVC/H.264
Битрейт видео: ~8064 Кбит/с
Размер кадра: 1920x1080 (16:9), 25,000 кадров/с
Аудиокодек: AAC, 2 ch, stereo
Битрейт аудио: 317 Кбит/с
Общее
Полное имя : Руки Вверх - Что Же Ты Наделала.mp4
Формат : MPEG-4
Профиль формата : Base Media / Version 2
Идентификатор кодека : mp42
Размер файла : 243 Мбайт
Продолжительность : 4 м. 3 с.
Режим общего битрейта : Переменный
Общий поток : 8385 Кбит/сек

Видео
Идентификатор : 1
Формат : AVC
Формат/Информация : Advanced Video Codec
Профиль формата :
Параметр CABAC формата : Да
Параметр ReFrames формата : 3 кадра
Идентификатор кодека : avc1
Идентификатор кодека/Информация : Advanced Video Coding
Продолжительность : 4 м. 3 с.
Продолжительность оригинала : 4 м. 3 с.
Вид битрейта : Переменный
Битрейт : 8064 Кбит/сек
Максимальный битрейт : 12,0 Мбит/сек
Ширина : 1920 пикселей
Высота : 1080 пикселей
Соотношение сторон : 16:9
Режим частоты кадров : Постоянный
Частота кадров : 25,000 кадров/сек
Стандарт вещания : PAL
Цветовое пространство : YUV
Субдискретизация насыщенности : 4:2:0
Битовая глубина : 8 бит
Тип развёртки : Прогрессивная
Бит/(Пиксели*Кадры) : 0.156
Размер потока : 234 Мбайт (96%)
Размер потока оригинала : 234 Мбайт (96%)
Язык : English
mdhd_Duration : 243200

Аудио
Идентификатор : 2
Формат : AAC
Формат/Информация : Advanced Audio Codec
Профиль формата : LC
Идентификатор кодека : 40
Продолжительность : 4 м. 3 с.
Продолжительность оригинала : 4 м. 3 с.
Вид битрейта : Переменный
Битрейт : 317 Кбит/сек
Каналы : 2 канала
Расположение каналов : Front: L R
Частота : 48,0 КГц
Метод сжатия : С потерями
Размер потока : 9,20 Мбайт (4%)
Размер потока оригинала : 9,20 Мбайт (4%)
Язык : English
mdhd_Duration : 243221
Скриншоты:
 
Не забывайте говорить Спасибо. Не уходите с раздачи!   
Торрент: Зарегистрирован [27 ноя 2014, 21:58] Скачать торрент
Скачать торрент
[ Размер 19.75 КБ / Просмотров 15 ]
Статус:
Проверен
 
.torrent скачан: 0 раз
Хэш: a6376f447b8f9d862a4ebde81494dad0b248b5b7
Размер: 243.13 МБ (254 936 146 байт)
Стать Автором раздачи
 
 
Раздал: 6.67 ГБ
Скачал: 302.5 МБ
Ратио: 22.576
Сообщения: 374198
Зарегистрирован: 17 апр 2014, 11:05


  • Похожие торренты
    Ответы
    Просмотры
    Последнее сообщение

Вернуться в Музыкальные клипы (транзит)

Ресурс не предоставляет электронные версии произведений, а занимается лишь коллекционированием и каталогизацией ссылок, присылаемых и публикуемых на форуме нашими читателями. Если вы являетесь правообладателем какого-либо представленного материала и не желаете чтобы ссылка на него находилась в нашем каталоге, свяжитесь с нами и мы незамедлительно удалим её. Файлы для обмена на трекере предоставлены пользователями сайта, и администрация не несёт ответственности за их содержание. Просьба не заливать файлы, защищенные авторскими правами, а также файлы нелегального содержания!
cron