Перевозчик (Transporter: The Series) / (Сезон 2, серии 1-4 из 12) BaibaKo (2014) [MP4|720x400] <HDTVRip H.264>

 
 Статистика раздачи 
Размер: 2.6 ГБ   |  Зарегистрирован: 26 ноя 2014, 23:02   |   .torrent скачан: 0 раз
Сидеров: 1  [ 0 байт/сек ]     Личеров: 0  [ 0 байт/сек ]  
  

Перевозчик (Transporter: The Series) / (Сезон 2, серии 1-4 из 12) BaibaKo (2014) [MP4|720x400] <HDTVRip H.264>

Сообщение Thistoll » 26 ноя 2014, 23:02

Перевозчик (Transporter: The Series) / (Сезон 2, серии 1-4 из 12) BaibaKo (2014) HDTVRip
«One man, Three rules, One goal...»

Год выпуска: 2014
Жанр: боевик, криминал
Страна: Канада, Франция, США, Германия

Режиссер: Брэд Тернер, Эрик Валетт, Энди Микита
Актеры: Крис Вэнс, Андреа Ошварт, Дэльфина Шанеак, Чарли Хюбнер, Франсуа Берлеан, Жан-Поль Мано, Джулиан Ричингс, Джейк Майклс, Джош Блэкер, Ной Кэппи и др.
Описание фильма:
Перевозчик — экшн-телесериал по мотивам одноимённой серии фильмов Люка Бессона. В центре сюжета бывший сотрудник Сил специального назначения Фрэнк Мартин, ныне перевозчик разных грузов. Он не задает лишних вопросов и всегда соблюдает чёткие правила: "Никогда не изменяй условия сделки", "Никаких имён", "Никогда не открывать груз". Его точность вождения и боевые навыки позволяют ему выжить в самых опасных ситуациях на протяжении всей миссии.
Скачать сэмпл
Дата мировой премьеры: 5 октября 2014 (2 сезон)
Продолжительность: ~ 00:51:00 серия
Перевод: Профессиональный (многоголосый, закадровый) - BaibaKo

Качество видео: HDTVRip
Формат: MP4
Видео: MPEG-4 AVC/H.264, 720x400 (16:9), ~1536 Кбит/сек
Аудио Rus: AAC, 2 канала, 192 Кбит/сек
Аудио Eng: AAC, 2 канала, 192 Кбит/сек

Релиз-группа: BaibaKo
Автор перевода: Наталья Черненко
Озвучка: Артемий Мирон, Елена Григорьева, Татьяна Оболевич и Владимир Курдов
Монтаж: Игорь Лихо
Особая благодарность alexandr2506 за помощь в подготовке релиза.
Полное имя : D:\Transporter_The_Series_s2_HDTVRip_x264_BaibaKo_[NNM-CLUB]\Transporter.The.Series.s02e01.HDTVRip.x264.Rus.Eng.BaibaKo.tv.mp4
Формат : MPEG-4
Профиль формата : Base Media
Идентификатор кодека : isom
Размер файла : 704 Мбайт
Продолжительность : 51 м.
Режим общего битрейта : Переменный
Общий поток : 1920 Кбит/сек
Дата кодирования : UTC 2014-10-30 18:10:24
Дата пометки : UTC 2014-10-30 18:10:24

Видео
Идентификатор : 1
Формат : AVC
Формат/Информация : Advanced Video Codec
Профиль формата :
Параметр CABAC формата : Нет
Параметр ReFrames формата : 3 кадра
Идентификатор кодека : avc1
Идентификатор кодека/Информация : Advanced Video Coding
Продолжительность : 51 м.
Битрейт : 1536 Кбит/сек
Максимальный битрейт : 11,1 Мбит/сек
Ширина : 720 пикселей
Высота : 400 пикселей
Соотношение сторон : 16:9
Режим частоты кадров : Переменный
Частота кадров : 23,976 кадра/сек
Минимальная частота кадров : 23,974 кадра/сек
Максимальная частота кадров : 23,981 кадра/сек
Цветовое пространство : YUV
Субдискретизация насыщенности : 4:2:0
Битовая глубина : 8 бит
Тип развёртки : Прогрессивная
Бит/(Пиксели*Кадры) : 0.222
Размер потока : 563 Мбайт (80%)
Библиотека кодирования : x264 core 130 r2273 b3065e6
Настройки программы : cabac=0 / ref=3 / deblock=1:0:0 / analyse=0x1:0x111 / me=hex / subme=7 / psy=1 / psy_rd=1.00:0.00 / mixed_ref=1 / me_range=16 / chroma_me=1 / trellis=1 / 8x8dct=0 / cqm=0 / deadzone=21,11 / fast_pskip=1 / chroma_qp_offset=-2 / threads=12 / lookahead_threads=2 / sliced_threads=0 / nr=0 / decimate=1 / interlaced=0 / bluray_compat=0 / constrained_intra=0 / bframes=0 / weightp=0 / keyint=240 / keyint_min=24 / scenecut=40 / intra_refresh=0 / rc_lookahead=40 / rc=2pass / mbtree=1 / bitrate=1536 / ratetol=1.0 / qcomp=0.60 / qpmin=0 / qpmax=69 / qpstep=4 / cplxblur=20.0 / qblur=0.5 / ip_ratio=1.40 / aq=1:1.00
Дата кодирования : UTC 2014-10-24 09:36:12
Дата пометки : UTC 2014-10-30 18:10:45
Основные цвета : BT.709
Характеристики трансфера : BT.709
Коэффициенты матрицы : BT.709

Аудио #1
Идентификатор : 2
Формат : AAC
Формат/Информация : Advanced Audio Codec
Профиль формата : LC
Идентификатор кодека : 67
Продолжительность : 51 м.
Вид битрейта : Переменный
Битрейт : 192 Кбит/сек
Максимальный битрейт : 195 Кбит/сек
Каналы : 2 канала
Расположение каналов : Front: L R
Частота : 48,0 КГц
Метод сжатия : С потерями
Размер потока : 69,4 Мбайт (10%)
Язык : Russian
Дата кодирования : UTC 2014-10-30 18:10:37
Дата пометки : UTC 2014-10-30 18:10:45

Аудио #2
Идентификатор : 3
Формат : AAC
Формат/Информация : Advanced Audio Codec
Профиль формата : LC
Идентификатор кодека : 67
Продолжительность : 51 м.
Вид битрейта : Переменный
Битрейт : 192 Кбит/сек
Максимальный битрейт : 196 Кбит/сек
Каналы : 2 канала
Расположение каналов : Front: L R
Частота : 48,0 КГц
Метод сжатия : С потерями
Размер потока : 69,4 Мбайт (10%)
Язык : English
Дата кодирования : UTC 2014-10-30 18:10:41
Дата пометки : UTC 2014-10-30 18:10:45
01. 2B Or Not 2B / Быть или не быть
02. We Go Back / Вернуться назад
03. Sex Lies And Video Tapes / Секс, ложь и кино
04. Boom / Бум
Внимание! Раздача ведётся путём добавления новых серий; при каждом добавлении создаётся новый торрент.
Чтобы начать докачку новой серии, пользователям необходимо сделать следующее:
1. Остановить скачивание;
2. Удалить старый торрент у себя из клиента (старые серии удалять не надо);
3. Скачать новый торрент и запустить его у себя в клиенте вместо старого, при этом указать клиенту путь в старую папку куда и должно происходить скачивание новых серий. Ваш клиент при этом должен произвести хеширование (проверку) старой папки и будет докачивать только те серии, которых у вас ещё нет. Старые серии при этом не удаляются, а продолжают раздаваться! Eсли вы уже удалили старые серии, то предотвратить повторную закачку старых серий можно, отжав галочку в соответствующих местах при запуске нового торрента.

Скриншоты:



Время раздачи:
24/7 - круглосуточно (до первых 5-ти сидов - потом по возможности)
(если Вам нужно скачать релиз, а сидов нет - пишите в личку, помогу)
 
Не забывайте говорить Спасибо. Не уходите с раздачи!   
Торрент: Зарегистрирован [26 ноя 2014, 23:02] Для скачивания .torrent
необходима регистрация
Или скачать с помощью
MediaGet
Статус:
Проверен
 
.torrent скачан: 0 раз
Хэш: 3fdc59b64539027dc6bf1c0e9f041b9262cfc0ea
Размер: 2.6 ГБ (2 794 552 313 байт)
Стать Автором раздачи
 
 
Раздал: 6.67 ГБ
Скачал: 302.5 МБ
Ратио: 22.576
Сообщения: 374198
Зарегистрирован: 17 апр 2014, 11:05


  • Похожие торренты
    Ответы
    Просмотры
    Последнее сообщение

Вернуться в Видео для мобильных устройств

Ресурс не предоставляет электронные версии произведений, а занимается лишь коллекционированием и каталогизацией ссылок, присылаемых и публикуемых на форуме нашими читателями. Если вы являетесь правообладателем какого-либо представленного материала и не желаете чтобы ссылка на него находилась в нашем каталоге, свяжитесь с нами и мы незамедлительно удалим её. Файлы для обмена на трекере предоставлены пользователями сайта, и администрация не несёт ответственности за их содержание. Просьба не заливать файлы, защищенные авторскими правами, а также файлы нелегального содержания!
cron