Первородные (The Originals) / (Сезон 1-2, серии 1-30 из 44) LostFilm (2013-2014) [MP4 | 1280x720/1280x718] <WEB-DL H.264>

 
 Статистика раздачи 
Размер: 37.89 ГБ   |  Зарегистрирован: 26 ноя 2014, 23:00   |   .torrent скачан: 0 раз
Сидеров: 1  [ 0 байт/сек ]     Личеров: 0  [ 0 байт/сек ]  
  

Первородные (The Originals) / (Сезон 1-2, серии 1-30 из 44) LostFilm (2013-2014) [MP4 | 1280x720/1280x718] <WEB-DL H.264>

Сообщение Thistoll » 26 ноя 2014, 23:00

Первородные (The Originals) / (Сезон 1-2, серии 1-30 из 44) LostFilm (2013-2014) WEB-DL

Год выпуска: 2013-2014
Производство: США
Жанр: Фантастика, Драма, Приключения

Описание фильма:
До того, как появились вампиры, миром правили Первородные. Спустя долгие годы Клаус Майклсон (Джозеф Морган) возвращается в родной Новый Орлеан, который он когда-то помог построить. Там он встречает своего старого друга и ученика Марселя (Чарльз Майкл Дэвис). Последний навел в городе свои порядки и установил строгие правила на колдовство ведьм. Все это не касалось Клауса (который особо и не интересовался), пока однажды он не услышал, как бьется сердце его еще не рожденного ребенка. Появление наследника Первородного никак не укладывалось в новые порядки Марселя, поэтому теперь Клаусу предстоит сделать важнейший выбор в своей жизни.

Режиссер: Крис Грисмер, Брэд Тернер
Актеры: Джозеф Морган, Дэниэл Гиллис, Чарльз Майкл Дэвис, Фиби Тонкин, Клер Холт, Стивен Крюгер, Даниэль Кэмпбелл, Каллард Харрис, Даниэлла Пинеда, Леа Пайпс

Продолжительность: 30x ~00:42:30 серия

Перевод: Многоголосый закадровый, профессиональный - LostFilm
Релиз группа: LostFilm



Дата мировой премьеры: 3 октября 2013
Дата российской премьеры: 17 марта 2014

Формат: MP4
Качество видео: WEB-DL 720P
Видеокодек: MPEG-4 AVC/H.264
Битрейт видео: ~4100 kb/s VBR
Размер кадра: 1280x720/1280x718
Аудиокодек: AAC
Битрейт аудио: ~120 kb/s VBR 2.0 LC
Complete name : D:\Видео - сериалы\Первородные - LostFilm.WEB-DL-720P. NNM-Club\The.Originals.S01E02.720p.WEB.rus.LostFilm.TV.mp4
Format : MPEG-4
Format profile : Base Media
Codec ID : isom
File size : 1.27 GiB
Duration : 42mn 37s
Overall bit rate mode : Variable
Overall bit rate : 4 275 Kbps
Collection : Первородные
Season : 1
Album : Первородные, Сезон 1
Album/Performer : Первородные
Part : 2
Part/Position : 1
Track name : Дом мятежного сына
Track name/Position : 2
Performer : Первородные
Genre : Sci-Fi & Fantasy
ContentType : TV Show
Recorded date : 2013
Encoded date : UTC 2013-10-10 14:36:37
Tagged date : UTC 2013-10-11 14:40:43
Writing application : LostCoder
Copyright : LostFilm.TV (c)
Cover : Yes
Comment : До того, как появились вампиры, миром правили Первородные. Спустя долгие годы Клаус возвращается в родной Новый Орлеан. Его старый друг и ученик Марсель навел в городе свои порядки и установил строгие правила на колдовство ведьм.
Part_ID : 102

Video
ID : 1
Format : AVC
Format/Info : Advanced Video Codec
Format profile :
Format settings, CABAC : No
Format settings, ReFrames : 2 frames
Codec ID : avc1
Codec ID/Info : Advanced Video Coding
Duration : 42mn 37s
Bit rate : 4 000 Kbps
Maximum bit rate : 13.5 Mbps
Width : 1 280 pixels
Height : 720 pixels
Display aspect ratio : 16:9
Frame rate mode : Variable
Frame rate : 23.976 fps
Minimum frame rate : 23.974 fps
Maximum frame rate : 23.981 fps
Color space : YUV
Chroma subsampling : 4:2:0
Bit depth : 8 bits
Scan type : Progressive
Bits/(Pixel*Frame) : 0.181
Stream size : 1.24 GiB (97%)
Writing library : x264 core 112 r1834 a51816a
Encoding settings : cabac=0 / ref=3 / deblock=1:0:0 / analyse=0x1:0x111 / me=hex / subme=7 / psy=1 / psy_rd=1.00:0.00 / mixed_ref=1 / me_range=16 / chroma_me=1 / trellis=1 / 8x8dct=0 / cqm=0 / deadzone=21,11 / fast_pskip=1 / chroma_qp_offset=-2 / threads=6 / sliced_threads=0 / nr=0 / decimate=1 / interlaced=0 / constrained_intra=0 / bframes=3 / b_pyramid=2 / b_adapt=1 / b_bias=0 / direct=1 / weightb=1 / open_gop=0 / weightp=2 / keyint=250 / keyint_min=25 / scenecut=40 / intra_refresh=0 / rc_lookahead=40 / rc=abr / mbtree=1 / bitrate=4000 / ratetol=1.0 / qcomp=0.60 / qpmin=0 / qpmax=51 / qpstep=4 / vbv_maxrate=5000 / vbv_bufsize=2000 / ip_ratio=1.40 / aq=1:1.00 / nal_hrd=none
Language : English
Tagged date : UTC 2013-10-10 14:38:01
Color primaries : BT.709
Transfer characteristics : BT.709
Matrix coefficients : BT.709

Audio
ID : 2
Format : AAC
Format/Info : Advanced Audio Codec
Format profile : LC
Codec ID : 40
Duration : 42mn 37s
Bit rate mode : Variable
Bit rate : 113 Kbps
Maximum bit rate : 155 Kbps
Channel(s) : 2 channels
Channel positions : Front: L R
Sampling rate : 48.0 KHz
Compression mode : Lossy
Stream size : 34.6 MiB (3%)
Encoded date : UTC 2013-10-10 14:38:00
Tagged date : UTC 2013-10-10 14:38:01
Complete name : D:\Видео - сериалы\Первородные - LostFilm.WEB-DL-720P.NNM-Club\The.Originals.S01E13.720p.WEB.rus.LostFilm.TV.mp4
Format : MPEG-4
Format profile : Base Media
Codec ID : isom
File size : 1.24 GiB
Duration : 42mn 42s
Overall bit rate mode : Variable
Overall bit rate : 4 161 Kbps
Collection : Первородные
Season : 1
Album : Первородные, Сезон 1
Album/Performer : Первородные
Part : 13
Part/Position : 1
Track name : Город полумесяца
Track name/Position : 13
Performer : Первородные
Genre : Sci-Fi & Fantasy
ContentType : TV Show
Recorded date : 2014
Encoded date : UTC 2014-02-06 16:32:07
Tagged date : UTC 2014-02-07 16:35:57
Writing application : LostCoder
Copyright : LostFilm.TV (c)
Cover : Yes
Comment : До того, как появились вампиры, миром правили Первородные. Спустя долгие годы Клаус возвращается в родной Новый Орлеан. Его старый друг и ученик Марсель навел в городе свои порядки и установил строгие правила на колдовство ведьм.
Part_ID : 113

Video
ID : 1
Format : AVC
Format/Info : Advanced Video Codec
Format profile :
Format settings, CABAC : No
Format settings, ReFrames : 2 frames
Codec ID : avc1
Codec ID/Info : Advanced Video Coding
Duration : 42mn 42s
Bit rate : 4 000 Kbps
Maximum bit rate : 13.6 Mbps
Width : 1 280 pixels
Height : 718 pixels
Display aspect ratio : 16:9
Frame rate mode : Variable
Frame rate : 23.976 fps
Minimum frame rate : 23.974 fps
Maximum frame rate : 23.981 fps
Color space : YUV
Chroma subsampling : 4:2:0
Bit depth : 8 bits
Scan type : Progressive
Bits/(Pixel*Frame) : 0.182
Stream size : 1.20 GiB (97%)
Writing library : x264 core 112 r1834 a51816a
Encoding settings : cabac=0 / ref=3 / deblock=1:0:0 / analyse=0x1:0x111 / me=hex / subme=7 / psy=1 / psy_rd=1.00:0.00 / mixed_ref=1 / me_range=16 / chroma_me=1 / trellis=1 / 8x8dct=0 / cqm=0 / deadzone=21,11 / fast_pskip=1 / chroma_qp_offset=-2 / threads=6 / sliced_threads=0 / nr=0 / decimate=1 / interlaced=0 / constrained_intra=0 / bframes=3 / b_pyramid=2 / b_adapt=1 / b_bias=0 / direct=1 / weightb=1 / open_gop=0 / weightp=2 / keyint=250 / keyint_min=25 / scenecut=40 / intra_refresh=0 / rc_lookahead=40 / rc=abr / mbtree=1 / bitrate=4000 / ratetol=1.0 / qcomp=0.60 / qpmin=0 / qpmax=51 / qpstep=4 / vbv_maxrate=5000 / vbv_bufsize=2000 / ip_ratio=1.40 / aq=1:1.00 / nal_hrd=none
Language : English
Tagged date : UTC 2014-02-06 16:32:40
Color primaries : BT.709
Transfer characteristics : BT.709
Matrix coefficients : BT.709

Audio
ID : 2
Format : AAC
Format/Info : Advanced Audio Codec
Format profile : LC
Codec ID : 40
Duration : 42mn 42s
Bit rate mode : Variable
Bit rate : 128 Kbps
Maximum bit rate : 211 Kbps
Channel(s) : 2 channels
Channel positions : Front: L R
Sampling rate : 48.0 KHz
Compression mode : Lossy
Stream size : 39.1 MiB (3%)
Encoded date : UTC 2014-02-06 16:32:39
Tagged date : UTC 2014-02-06 16:32:40
General
Complete name : D:\Видео - сериалы\Первородные - LostFilm.WEB-DL-720P.NNM-Club\Первородные -Сезон 2 LostFilm.WEB-DL-720P.NNM-Club\The.Originals.S02E01.720p.WEB.rus.LostFilm.TV.mp4
Format : MPEG-4
Format profile : Base Media
Codec ID : isom
File size : 1.32 GiB
Duration : 42mn 42s
Overall bit rate mode : Variable
Overall bit rate : 4 435 Kbps
Collection : Первородные
Season : 2
Album : Первородные, Сезон 2
Album/Performer : Первородные
Part : 1
Part/Position : 2
Track name : Перерождение
Track name/Position : 1
Performer : Первородные
Genre : Sci-Fi & Fantasy
ContentType : TV Show
Recorded date : 2014
Encoded date : UTC 2014-10-07 16:58:01
Tagged date : UTC 2014-10-07 16:58:01
Writing application : Yamb 2.1.0.0 [http://yamb.unite-video.com] / LostCoder
Copyright : LostFilm.TV (c)
Cover : Yes
Comment : До того, как появились вампиры, миром правили Первородные. Спустя долгие годы Клаус возвращается в родной Новый Орлеан. Его старый друг и ученик Марсель навел в городе свои порядки и установил строгие правила на колдовство ведьм.
Part_ID : 201

Video
ID : 1
Format : AVC
Format/Info : Advanced Video Codec
Format profile :
Format settings, CABAC : No
Format settings, ReFrames : 2 frames
Codec ID : avc1
Codec ID/Info : Advanced Video Coding
Duration : 42mn 42s
Bit rate : 4 000 Kbps
Maximum bit rate : 12.8 Mbps
Width : 1 280 pixels
Height : 718 pixels
Display aspect ratio : 16:9
Frame rate mode : Variable
Frame rate : 23.976 fps
Minimum frame rate : 23.974 fps
Maximum frame rate : 23.981 fps
Color space : YUV
Chroma subsampling : 4:2:0
Bit depth : 8 bits
Scan type : Progressive
Bits/(Pixel*Frame) : 0.182
Stream size : 1.25 GiB (94%)
Writing library : x264 core 112 r1834 a51816a
Encoding settings : cabac=0 / ref=3 / deblock=1:0:0 / analyse=0x1:0x111 / me=hex / subme=7 / psy=1 / psy_rd=1.00:0.00 / mixed_ref=1 / me_range=16 / chroma_me=1 / trellis=1 / 8x8dct=0 / cqm=0 / deadzone=21,11 / fast_pskip=1 / chroma_qp_offset=-2 / threads=6 / sliced_threads=0 / nr=0 / decimate=1 / interlaced=0 / constrained_intra=0 / bframes=3 / b_pyramid=2 / b_adapt=1 / b_bias=0 / direct=1 / weightb=1 / open_gop=0 / weightp=2 / keyint=250 / keyint_min=25 / scenecut=40 / intra_refresh=0 / rc_lookahead=40 / rc=abr / mbtree=1 / bitrate=4000 / ratetol=1.0 / qcomp=0.60 / qpmin=0 / qpmax=51 / qpstep=4 / vbv_maxrate=5000 / vbv_bufsize=2000 / ip_ratio=1.40 / aq=1:1.00 / nal_hrd=none
Language : English
Tagged date : UTC 2014-10-07 16:58:15
Color primaries : BT.709
Transfer characteristics : BT.709
Matrix coefficients : BT.709

Audio
ID : 2
Format : AAC
Format/Info : Advanced Audio Codec
Format profile : LC
Codec ID : 40
Duration : 42mn 42s
Bit rate mode : Variable
Bit rate : 240 Kbps
Maximum bit rate : 297 Kbps
Channel(s) : 2 channels
Channel positions : Front: L R
Sampling rate : 48.0 KHz
Compression mode : Lossy
Stream size : 73.3 MiB (5%)
Encoded date : UTC 2014-10-07 16:58:13
Tagged date : UTC 2014-10-07 16:58:15
01. Always and Forever / Всегда и навечно
02. House of the Rising Son / Дом мятежного сына
03. Tangled Up in Blue / Заплутав в печали
04. Girl in New Orleans / Девушка в Новом Орлеане
05. Sinners and Saints / Святые и грешники
06. Fruit of the Poisoned Tree / Плод ядовитого дерева
07. Bloodletting / Кровопролитие
08. The River in Reverse / Повернуть время вспять
09. Reigning Pain in New Orleans / Бремя власти в Новом Орлеане
10. The Casket Girls / Девушки с характером
11. Après Moi, Le Déluge / После нас хоть потоп
12. Dance Back from the Grave / Танец восставших из мертвых
13. Crescent City / Город полумесяца
14. Long Way Back from Hell / Долгая дорога из ада
15. Le Grand Guignol / Гран-Гиньоль
16. Farewell to Storyville / Прощание с городом
17. Moon Over Bourbon Street / Луна над Бурбон Стрит
18. The Big Uneasy / Большой переполох
19. An Unblinking Death / Спокойная смерть
20. A Closer Walk with Thee / Идти с тобой рядом
21. The Battle of New Orleans / Битва за Новый Орлеан
22. From a Cradle to a Grave / Из колыбели в могилу
01. Rebirth / Перерождение
02. Alive and Kicking / Живы-здоровы
03. Every Mother's Son / Мамины дети
04. Live and Let Die / Живи и дай умереть
05. Red Door / Красная дверь
06. Wheel Inside the Wheel / Колесо в колесе
07. Chasing the Devil's Tail / Поймать дьявола за хвост
08. The Brothers That Care Forgot / Братья, лишённые заботы
Скриншоты:



Внимание! Раздача ведётся путём добавления новых серий; при каждом добавлении создётся новый торрент. Чтобы начать докачку новой серии, пользователям необходимо сделать следующее:
(1) остановить скачивание,
(2) удалить старый торрент у себя из клиента (старые серии удалять не надо),
(3) скачать новый торрент и запустить его у себя в клиенте вместо старого, при этом указать клиенту путь в старую папку куда и должно происходить скачивание новых серий.
Ваш клиент при этом должен произвести хеширование (проверку) старой папки (если не производит сам - помогите ему сделать это), и будет докачивать только те серии которых у вас ещё нет. Старые серии при этом не удаляются, а продолжают раздаваться!
Eсли вы уже удалили старые серии, то предотвратить повторную закачку старых серий можно, отжав галочку в соответсвующих местах при запуске нового торрента. По возможности, желательно не удалять старые серии как можно дольше чтобы релизёр не столько продолжал раздавать старые серии, а смог сконцентрироваться на новых.

Время раздачи: Круглосуточно, до первых 10-и скачавших
Приятного просмотра!
 
Не забывайте говорить Спасибо. Не уходите с раздачи!   
Торрент: Зарегистрирован [26 ноя 2014, 23:00] Для скачивания .torrent
необходима регистрация
Или скачать с помощью
MediaGet
Статус:
Проверен
 
.torrent скачан: 0 раз
Хэш: 45ce398641a1c39cc268a8d2d852216029e8c2d2
Размер: 37.89 ГБ (40 681 891 744 байт)
Стать Автором раздачи
 
 
Раздал: 6.67 ГБ
Скачал: 302.5 МБ
Ратио: 22.576
Сообщения: 374198
Зарегистрирован: 17 апр 2014, 11:05


  • Похожие торренты
    Ответы
    Просмотры
    Последнее сообщение

Вернуться в Видео для мобильных устройств

Ресурс не предоставляет электронные версии произведений, а занимается лишь коллекционированием и каталогизацией ссылок, присылаемых и публикуемых на форуме нашими читателями. Если вы являетесь правообладателем какого-либо представленного материала и не желаете чтобы ссылка на него находилась в нашем каталоге, свяжитесь с нами и мы незамедлительно удалим её. Файлы для обмена на трекере предоставлены пользователями сайта, и администрация не несёт ответственности за их содержание. Просьба не заливать файлы, защищенные авторскими правами, а также файлы нелегального содержания!
cron